Светлячок / Firefly / Сезон: 1 / Серии: 1-14 (14) (Джосс Уидон / Joss Whedon, Тим Минеар / Tim Minear) [2002 г., фантастика, боевик, драма, приключения, BDRip-AVC, 576p] AVO (Юрий Сербин) + Sub (Rus)

 

Создавать темы 23-Фев-2015 04:49

Светлячок / Firefly
«Meet the most spaced-out crew in the galaxy»
- Год выпуска: 2002
Производство: США
Жанр: фантастика, боевик, драма, приключения
Продолжительность: 01:26:42 (1ая серия), ~ 44 мин (2-14 серии)
Перевод: Авторский (одноголосый, закадровый) Юрий Сербин
Субтитры: Есть
Язык субтитров: Русский
Формат субтитров: softsub (SRT), отключаемые
Режиссер: Джосс Уидон / Joss Whedon, Тим Минеар / Tim Minear
В ролях:
  • Нэйтан ФиллионМалькольм «Мэл» Рейнольдс
  • Джина ТорресЗои Эллейн Уошбёрн
  • Алан ТьюдикХобан «Уош» Уошбёрн
  • Морена БаккаринИнара Серра
  • Адам БолдуинДжейн Кобб
  • Шон МахерДоктор Саймон Тэм
  • Джуэл СтэйтКейуиннит Ли «Кейли» Фрай
  • Саммер ГлауРивер Тэм
  • Рон ГлассДерриал «Пастор» Бук
Описание: Капитан Малькольм Рейнольдс — закаленный в боях ветеран галактической гражданской войны, сражавшийся не на той (проигравшей) стороне, зарабатывает на жизнь мелкими преступлениями и перевозит грузы на своем корабле «Серенити».Он возглавляет небольшую разношерстную команду, которая порядком смахивает на самую обычную семью — ее члены вечно ссорятся, не соблюдают дисциплину, но никогда не предадут своего капитана и пойдут за ним хоть на край света.

Качество видео: BDRip-AVC
Контейнер: MKV
Стандарт разрешения: 576p
Видео кодек: MPEG4-AVC / H.264
Видео: 1024x576 / 2123-3572 kbps / 23,976 fps / 16:9 / High Profile 4.1
Аудио : 48 kHz, AC3 Dolby Digital, 3/2 (L,C,R,l,r) + LFE ch, ~448 kbps avg - Сербин

Серии:

Episode 1: Серенити / Serenity
Episode 2: Ограбление поезда / The Train Job
Episode 3: Свихнувшийся / Bushwhacked
Episode 4: Вечеринка / Shindig
Episode 5: Вызволение / Safe
Episode 6: Наша миссис Рейнольдс / Our Mrs. Reynolds
Episode 7: Джейнстаун / Jaynestown
Episode 8: Авария / Out of Gas
Episode 9: Ариэль / Ariel
Episode 10: Военные байки / War Stories
Episode 11: Помойка / Trash
Episode 12: Послание / The Message
Episode 13: Золотое сердце / Heart of Gold
Episode 14: Объекты в пространстве / Objects in Space

Доп. информация

Перевод Юрия Сербина осуществлён благородными донами двух сайтов:
Спонсоры HDCLUB: Plazik, mcevg, HPotter, Loki1982, Кириллка, Efish, vlaluk, Angmar, glegat;
Спонсоры E180: dr_akula, Эдуард, zeleniy, User, carnivale, AlBeOne, Nadoelo, dir, zaq-qaz, Andrey_Tula, Bilko, DB73, semargl, ValK, Foots, Stalk, STONECOLD, magvai, ТИС.

Награды

Сатурн, 2004 год
Победитель (1):
Лучшее DVD-издание телепрограммы — «For The Complete Firefly»
Сатурн, 2003 год
Победитель (1):
Премия журнала Cinescape (Genre Face of the Future) за лучшую мужскую роль (Нэйтан Филлион)

Media Info

Формат : Matroska
Версия формата : Version 4 / Version 2
Размер файла : 1,72 Гбайт
Продолжительность : 1 ч. 26 м.
Общий поток : 2841 Кбит/сек
Название фильма : Firefly.Serbin (1-15)\Firefly.S1.E01.2002.BDRip-AVC.Serbin -=anton966=-
Дата кодирования : UTC 2015-02-17 04:54:51
Программа кодирования : mkvmerge v7.6.0 ('Garden of Dreams') 64bit built on Feb 8 2015 13:04:34
Библиотека кодирования : libebml v1.3.1 + libmatroska v1.4.2
DURATION : 01:24:49.143000000
NUMBER_OF_FRAMES : 1072
NUMBER_OF_BYTES : 69898
_STATISTICS_WRITING_APP : mkvmerge v7.6.0 ('Garden of Dreams') 64bit built on Feb 8 2015 13:04:34
_STATISTICS_WRITING_DATE_UTC : 2015-02-17 04:54:51
_STATISTICS_TAGS : BPS DURATION NUMBER_OF_FRAMES NUMBER_OF_BYTES
Видео
Идентификатор : 1
Формат : AVC
Формат/Информация : Advanced Video Codec
Профиль формата : [email protected]
Параметр CABAC формата : Да
Параметр ReFrames формата : 8 кадров
Идентификатор кодека : V_MPEG4/ISO/AVC
Продолжительность : 1 ч. 26 м.
Битрейт : 2337 Кбит/сек
Ширина : 1024 пикселя
Высота : 576 пикселей
Соотношение сторон : 16:9
Режим частоты кадров : Постоянный
Частота кадров : 23,976 кадра/сек
Цветовое пространство : YUV
Субдискретизация насыщенности : 4:2:0
Битовая глубина : 8 бит
Тип развёртки : Прогрессивная
Бит/(Пиксели*Кадры) : 0.165
Размер потока : 1,42 Гбайт (82%)
Заголовок : Firefly.Serbin (1-15)\Firefly.S1.E01.2002.BDRip-AVC (1024x576)
Библиотека кодирования : x264 core 144 r2525 40bb568
Настройки программы : cabac=1 / ref=8 / deblock=1:-2:-1 / analyse=0x3:0x113 / me=umh / subme=11 / psy=1 / psy_rd=1.05:0.15 / mixed_ref=1 / me_range=32 / chroma_me=1 / trellis=2 / 8x8dct=1 / cqm=0 / deadzone=21,11 / fast_pskip=1 / chroma_qp_offset=-3 / threads=12 / lookahead_threads=3 / sliced_threads=0 / nr=0 / decimate=1 / interlaced=0 / bluray_compat=0 / constrained_intra=0 / bframes=10 / b_pyramid=2 / b_adapt=2 / b_bias=0 / direct=1 / weightb=1 / open_gop=0 / weightp=2 / keyint=250 / keyint_min=23 / scenecut=40 / intra_refresh=0 / rc=crf / mbtree=0 / crf=19.8 / qcomp=0.60 / qpmin=0 / qpmax=69 / qpstep=4 / ip_ratio=1.40 / pb_ratio=1.30 / aq=1:1.00
Язык : English
Default : Да
Forced : Нет
DURATION : 01:26:42.197000000
NUMBER_OF_FRAMES : 124728
NUMBER_OF_BYTES : 1555030644
_STATISTICS_WRITING_APP : mkvmerge v7.6.0 ('Garden of Dreams') 64bit built on Feb 8 2015 13:04:34
_STATISTICS_WRITING_DATE_UTC : 2015-02-17 04:54:51
_STATISTICS_TAGS : BPS DURATION NUMBER_OF_FRAMES NUMBER_OF_BYTES
Аудио
Идентификатор : 2
Формат : AC-3
Формат/Информация : Audio Coding 3
Расширение режима : CM (complete main)
Параметр Endianness формата : Big
Идентификатор кодека : A_AC3
Продолжительность : 1 ч. 26 м.
Вид битрейта : Постоянный
Битрейт : 448 Кбит/сек
Каналы : 6 каналов
Расположение каналов : Front: L C R, Side: L R, LFE
Частота : 48,0 КГц
Битовая глубина : 16 бит
Метод сжатия : С потерями
Размер потока : 278 Мбайт (16%)
Default : Да
Forced : Нет
Текст
Идентификатор : 3
Формат : UTF-8
Идентификатор кодека : S_TEXT/UTF8
Идентификатор кодека/Информация : UTF-8 Plain Text
Default : Да
Forced : Нет
Меню
00:00:00.000 : en:Last Stand
00:05:06.514 : en:Vultures
00:10:58.783 : en:Main Titles
00:11:50.710 : en:Crew Plus One
00:16:46.797 : en:Den of Thieves
00:22:06.825 : en:A Boatful of Citizens
00:27:37.989 : en:Public Relations
00:34:20.099 : en:Companionable
00:36:04.495 : en:Mole on Board
00:42:12.488 : en:Worth Killing For
00:47:43.902 : en:A World of Trouble
00:50:26.523 : en:Bribery
00:53:00.302 : en:Campfire Stories
00:56:50.990 : en:Mean Old Man
00:58:55.657 : en:Lost in the Woods
01:01:39.987 : en:Government Goods
01:04:26.863 : en:Impatience
01:13:22.940 : en:Return of the Reavers
01:20:39.668 : en:Still Flying
01:25:48.476 : en:End Titles

log x.264

vs [info]: 1024x576p 1:1 @ 24000/1001 fps (cfr)
x264 [info]: using SAR=1/1
x264 [info]: using cpu capabilities: MMX2 SSE2Fast SSSE3 SSE4.2 AVX XOP FMA4 FMA3 LZCNT BMI1
x264 [info]: profile High, level 4.1
x264 [info]: frame I:1113 Avg QP:17.89 size: 73740
x264 [info]: frame P:26365 Avg QP:19.22 size: 27561
x264 [info]: frame B:97250 Avg QP:21.49 size: 7674
x264 [info]: consecutive B-frames: 2.4% 2.7% 6.9% 10.9% 18.8% 52.8% 3.1% 0.5% 0.6% 0.7% 0.6%
x264 [info]: mb I I16..4: 9.6% 79.0% 11.4%
x264 [info]: mb P I16..4: 0.6% 11.9% 0.9% P16..4: 33.1% 40.5% 11.0% 0.0% 0.0% skip: 2.1%
x264 [info]: mb B I16..4: 0.0% 0.6% 0.0% B16..8: 45.4% 18.3% 2.0% direct: 3.7% skip:29.9% L0:42.5% L1:49.6% BI: 7.9%
x264 [info]: 8x8 transform intra:87.4% inter:63.0%
x264 [info]: coded y,uvDC,uvAC intra: 96.0% 82.6% 54.9% inter: 23.1% 15.2% 1.4%
x264 [info]: i16 v,h,dc,p: 14% 11% 16% 59%
x264 [info]: i8 v,h,dc,ddl,ddr,vr,hd,vl,hu: 7% 6% 9% 11% 15% 14% 14% 12% 13%
x264 [info]: i4 v,h,dc,ddl,ddr,vr,hd,vl,hu: 8% 6% 2% 10% 17% 16% 16% 12% 13%
x264 [info]: i8c dc,h,v,p: 38% 25% 18% 19%
x264 [info]: Weighted P-Frames: Y:18.7% UV:14.4%
x264 [info]: ref P L0: 46.0% 10.1% 20.0% 7.2% 6.0% 4.1% 3.9% 2.2% 0.5% 0.1%
x264 [info]: ref B L0: 80.8% 9.6% 4.3% 2.3% 1.6% 1.0% 0.5%
x264 [info]: ref B L1: 95.3% 4.7%
x264 [info]: kb/s:2391.34

Скриншоты

Яндекс.Метрика
Рейтинг@Mail.ru