Трейсеры / Tracers (Даниэль Бенмаур / Daniel Benmayor) [2015 г., боевик, WEBRip] DVO (RAIM и NASTR)

 

Создавать темы 23-Фев-2015 04:38

-Трейсеры / Tracers- Производство: США / Cowtown Cinema Ventures, Freerunning, Saban Films
Год выпуска: 2015 г.
Жанр: боевик
Продолжительность: 01:28:20
Мировая премьера: 15 января 2015
Российская премьера: 26 марта 2015, «West»
Перевод: Любительский (двухголосый, закадровый) [RAIM и NASTR]-Режиссер: Даниэль Бенмаур / Daniel Benmayor
В ролях: Тейлор Лотнер, Мари Авгеропулос, Рафи Гаврон, Адам Рэйнер, Сэм Медина, Доа Моа, Лучиано Акуна мл., Даг Драклер, Эндрю Элвис Миллер, Эдвард М. Келахэн-Описание: Фильм расскажет историю парня по имени Кэм — велокурьера, находящегося в долгу перед некоей преступной группировкой. В один из дней он сбивает на своем велосипеде сексуальную незнакомку, которая соблазняет его и увлекает в мир паркура.- -Качество видео: WEBRip
Контейнер: AVI
Видео кодек: XviD
Аудио кодек: AC3
Видео: 640x480 (1.33:1), 23.976 fps, XviD build 73 ~973 kbps avg, 0.13 bit/pixel
Аудио: 44.1 kHz, AC3 Dolby Digital, 2/0 (L,R) ch, ~128 kbps
Cубтитры: отсутствуют

Media Info

General
Complete name : D:\Tracers.2015.L2.DVDRip.avi
Format : AVI
Format/Info : Audio Video Interleave
File size : 702 MiB
Duration : 1h 28mn
Overall bit rate : 1 111 Kbps
Writing application : VirtualDubMod 1.5.10.3 | www.virtualdub-fr.org || (build 2550/release)
Writing library : VirtualDubMod build 2550/release
Video
ID : 0
Format : MPEG-4 Visual
Format profile : Advanced [email protected]
Format settings, BVOP : 1
Format settings, QPel : No
Format settings, GMC : No warppoints
Format settings, Matrix : Custom
Codec ID : XVID
Codec ID/Hint : XviD
Duration : 1h 28mn
Bit rate : 973 Kbps
Width : 640 pixels
Height : 480 pixels
Display aspect ratio : 4:3
Frame rate : 23.976 fps
Color space : YUV
Chroma subsampling : 4:2:0
Bit depth : 8 bits
Scan type : Progressive
Compression mode : Lossy
Bits/(Pixel*Frame) : 0.132
Stream size : 615 MiB (88%)
Writing library : XviD 73
Audio
ID : 1
Format : AC-3
Format/Info : Audio Coding 3
Mode extension : CM (complete main)
Format settings, Endianness : Big
Codec ID : 2000
Duration : 1h 28mn
Bit rate mode : Constant
Bit rate : 128 Kbps
Channel(s) : 2 channels
Channel positions : Front: L R
Sampling rate : 44.1 KHz
Bit depth : 16 bits
Compression mode : Lossy
Stream size : 80.9 MiB (12%)
Alignment : Split accross interleaves
Interleave, duration : 42 ms (1.00 video frame)
Interleave, preload duratio : 500 ms

Скриншоты

Яндекс.Метрика
Рейтинг@Mail.ru