Жажда (Евгений Ташков) [1959 г., военный, DVDRip]

 

Создавать темы 23-Фев-2015 04:32

-Жажда-- Производство: СССР, Одесская киностудия
Режиссер: Евгений Ташков
Жанр: военный
Год выпуска: 1959 г.
Продолжительность: 01:15:28
В ролях: В.Тихонов, В.Хмара, Ю.Белов, А.Доценко, В.Иванов, Н.Тимофеев, Б.Битюков, Б.Годунцов, В.Векшин, М.Суяргулов, О.Голубицкий-Описание: Одесса, осаждённая гитлеровскими захватчиками, осталась без воды: немцы заняли близлежащее село, в котором находится водонапорная станция. Нужно во что бы то ни стало спасти жителей, хотя бы на несколько часов дать городу воду.
Попытка высадить в село десант оказалась неудачной. Командование посылает матроса Безбородько, знающего немецкий язык, снабдив его документами захваченного в плен гитлеровского офицера. Вслед за ним линию фронта переходит и весь отряд...-Качество видео: DVDRip
Контейнер: AVI
Видео кодек: XviD
Аудио кодек: AC3
Видео: 704x496; 969 kbps; 25 fps; 0.111 bits/pixel
Аудио: 192 kbps; 2 ch ;48kHz
Cубтитры: отсутствуют

Награды

1960 г. - На Всесоюзном кинофестивале (ВКФ) в Минске фильм «Жажда» получил третью премию. Пётр Тодоровский получил вторую премию за операторскую работу

Media Info

General
Complete name : D:\Torrent\Zazda_[Pirat.ca].torrent.avi
Format : AVI
Format/Info : Audio Video Interleave
File size : 621 MiB
Duration : 1h 14mn
Overall bit rate : 1 170 Kbps
Writing application : VirtualDubMod 1.5.10.2 (build 2540/release)
Writing library : VirtualDub build 35390/release
Video
ID : 0
Format : MPEG-4 Visual
Format profile : Advanced [email protected]
Format settings, BVOP : 2
Format settings, QPel : No
Format settings, GMC : No warppoints
Format settings, Matrix : Default (H.263)
Muxing mode : Packed bitstream
Codec ID : XVID
Codec ID/Hint : XviD
Duration : 1h 14mn
Bit rate : 969 Kbps
Width : 704 pixels
Height : 496 pixels
Display aspect ratio : 1.419
Frame rate : 25.000 fps
Color space : YUV
Chroma subsampling : 4:2:0
Bit depth : 8 bits
Scan type : Progressive
Compression mode : Lossy
Bits/(Pixel*Frame) : 0.111
Stream size : 514 MiB (83%)
Writing library : XviD 64
Audio
ID : 1
Format : AC-3
Format/Info : Audio Coding 3
Mode extension : CM (complete main)
Format settings, Endianness : Big
Codec ID : 2000
Duration : 1h 14mn
Bit rate mode : Constant
Bit rate : 192 Kbps
Channel(s) : 2 channels
Channel positions : Front: L R
Sampling rate : 48.0 KHz
Bit depth : 16 bits
Compression mode : Lossy
Stream size : 102 MiB (16%)
Alignment : Aligned on interleaves
Interleave, duration : 40 ms (1.00 video frame)
Interleave, preload duratio : 512 ms

Скриншоты

Раздача с 14.00 до 2.00 (время московское)
Яндекс.Метрика
Рейтинг@Mail.ru