(Pop, Dance) Anders | Fahrenkrog - Two - 2011, FLAC (image+.cue), lossless

 

Создавать темы 04-Окт-2013 19:29

--Anders | Fahrenkrog - Two-- Жанр: Pop/Dance
Страна-производитель диска: Germany
Год издания диска: 2011
Издатель (лейбл): Polydor Munchen
Номер по каталогу: 276 851-8
Аудиокодек: FLAC (*.flac)
Тип рипа: image+.cue
Битрейт аудио: lossless
Продолжительность: 00:41:41
Наличие сканов в содержимом раздачи: да

Two:
01. Gigolo [0:03:24.49]
02. No More Tears On The Dancefloor [0:03:45.16]
03. Summer Of Love [0:02:45.40]
04. Wicked Love [0:03:41.22]
05. Mr. Moon [0:03:57.70]
06. Nathalie [0:03:19.65]
07. Stay [0:03:22.65]
08. Hit Or A Miss [0:03:22.37]
09. Why Do You Cry [0:03:39.23]
10. Maria [0:03:40.49]
11. Army Of Love [0:03:04.27]
12. I Miss You [0:03:36.74]

Отчёт EAC

Exact Audio Copy V1.0 beta 1 from 15. November 2010
EAC extraction logfile from 18. June 2011, 0:03
Anders | Fahrenkrog / Two
Used drive : PIONEER DVD-RW DVR-112D Adapter: 2 ID: 0
Read mode : Secure
Utilize accurate stream : Yes
Defeat audio cache : Yes
Make use of C2 pointers : No
Read offset correction : 48
Overread into Lead-In and Lead-Out : No
Fill up missing offset samples with silence : Yes
Delete leading and trailing silent blocks : No
Null samples used in CRC calculations : Yes
Used interface : Installed external ASPI interface
Used output format : User Defined Encoder
Selected bitrate : 1024 kBit/s
Quality : High
Add ID3 tag : No
Command line compressor : C:\Program Files (x86)\Exact Audio Copy\Flac\flac.exe
Additional command line options : -5 -V -T "ARTIST=%a" -T "TITLE=%t" -T "ALBUM=%g" -T "DATE=%y" -T "TRACKNUMBER=%n" -T "GENRE=%m" -T "COMMENT=EAC FLAC -5" %s
TOC of the extracted CD
Track | Start | Length | Start sector | End sector
---------------------------------------------------------
1 | 0:00.00 | 3:24.49 | 0 | 15348
2 | 3:24.49 | 3:45.16 | 15349 | 32239
3 | 7:09.65 | 2:45.40 | 32240 | 44654
4 | 9:55.30 | 3:41.22 | 44655 | 61251
5 | 13:36.52 | 3:57.70 | 61252 | 79096
6 | 17:34.47 | 3:19.65 | 79097 | 94086
7 | 20:54.37 | 3:22.65 | 94087 | 109301
8 | 24:17.27 | 3:22.37 | 109302 | 124488
9 | 27:39.64 | 3:39.23 | 124489 | 140936
10 | 31:19.12 | 3:40.49 | 140937 | 157485
11 | 34:59.61 | 3:04.27 | 157486 | 171312
12 | 38:04.13 | 3:36.74 | 171313 | 187586
Range status and errors
Selected range
Filename F:\Anders • Fahrenkrog - Two - 2011\Anders • Fahrenkrog - Two.wav
Peak level 98.8 %
Extraction speed 0.6 X
Range quality 100.0 %
Test CRC 886FD18D
Copy CRC 886FD18D
Copy OK
No errors occurred
AccurateRip summary
Track 1 not present in database
Track 2 not present in database
Track 3 not present in database
Track 4 not present in database
Track 5 not present in database
Track 6 not present in database
Track 7 not present in database
Track 8 not present in database
Track 9 not present in database
Track 10 not present in database
Track 11 not present in database
Track 12 not present in database
None of the tracks are present in the AccurateRip database
End of status report
Яндекс.Метрика
Рейтинг@Mail.ru