Викинги (Vikings) / (Сезон 1-3, серии 1-20 из 29) LostFilm (2013-2015) [MP4|1280x720] <WEB-DLRip [H.264]>

 

Создавать темы 22-Фев-2015 17:25

-Викинги (Vikings) / (Сезон 1-3, серии 1-20 из 29) LostFilm (2013-2015) WEB-DL«The Storm Is Coming»- Жанр: Боевик, драма, военный, история
Производство: Ирландия, Канада
Описание фильма:
Исторический сериал «Викинги» от создателя «Тюдоров» и продюсера «Камелота» и «Борджиа» Майкла Херста расскажет о путешествиях легендарного героя скандинавских саг Рагнара Лодброка, а также о превращении молодого викинга в мудрого правителя, которого сравнивали с самим богом войны Одином. Проект канала History может похвастаться яркими персонажами, красивыми натурными съемками и эпичными батальными сценами.
Молодой фермер Рагнар Лодброк (Трэвис Фиммел), мечтающий о походе на Запад, выступает против воли местного правителя викингов, предпочитающего безопасные набеги на бедные соседние земли. Заручившись поддержкой своей семьи, герой принимает решение ослушаться приказа, тем самым разделив своих сородичей на два противоборствующих лагеря. С помощью искусного мастера Рагнар берется за строительство быстроходного корабля. С отрядом преданных бойцов викинг готов совершить нападение на сулящие несметные богатства земли англосаксов. Его легендарное путешествие в Британию будет воспето в мифах и преданиях…
Режиссер: Йохан Ренк, Киаран Доннелли, Кен Джиротти , Джефф Вулнаф
Актеры: Трэвис Фиммел, Клайв Стэнден, Кэтрин Уинник, Гэбриел Бирн, Джессалин Гилсиг, Густаф Скарсгард, Джордж Благден, Тадж Мерфи, Диармэйд Мурта, Дэвид Пирс и др.
Продолжительность: ~ 00:45:00 серия
Качество видео: WEB-DLRip 720p
Перевод: Многоголосый закадровый, профессиональный - LostFilm
Озвучка / Автор перевода: Студия «LostFilm»
Сэмпл
Видеокодек: MPEG-4 AVC/H.264
Битрейт видео: ~4000 Кбит/сек
Размер кадра: 1280x720 (16:9)
Аудиокодек: AAC, 2 канала
Битрейт аудио: 128 Кбит/сек

Тех.данные

1 сезон

Видеокодек: MPEG-4 AVC/H.264
Битрейт видео: ~4246 Кбит/сек
Размер кадра: 1280x720 (16:9)
Аудиокодек: AAC, 2 канала
Битрейт аудио: 128 Кбит/сек

2 сезон

Видеокодек: MPEG-4 AVC/H.264
Битрейт видео: ~4226 Кбит/сек
Размер кадра: 1280x718 (16:9)
Аудиокодек: AAC, 2 канала
Битрейт аудио: 255 Кбит/сек

3 сезон

Видеокодек: MPEG-4 AVC/H.264
Битрейт видео: ~4000 Кбит/сек
Размер кадра: 1280x718 (16:9)
Аудиокодек: AAC, 2 канала
Битрейт аудио: 265 Кбит/сек

MediaInfo

1 сезон

Полное имя : O:\Vikings_(all.sezon's)_WEB-DL720p_x264_LostFilm_[NNM-CLUB]\сезон 1\Vikings.S01E01.720p.WEB.rus. LostFilm.TV.mp4
Формат : MPEG-4
Профиль формата : Base Media
Идентификатор кодека : isom
Размер файла : 1,36 Гбайт
Продолжительность : 44 м.
Режим общего битрейта : Переменный
Общий поток : 4380 Кбит/сек
Коллекция : Викинги
Сезон : 1
Альбом : Викинги, Сезон 1
Альбом/Исполнитель : Викинги
Часть : 1
Часть/Положение : 1
Трек : Обряд посвящения
Трек/Положение : 1
Исполнитель : Викинги
Жанр : Drama
Тип содержимого : TV Show
Дата записи : 2013
Дата кодирования : UTC 2014-07-17 08:28:45
Дата пометки : UTC 2014-07-17 08:28:45
Программа кодирования : Yamb 2.1.0.0 [http://yamb.unite-video.com] / LostCoder
Правообладатель : LostFilm.TV (c)
Обложка : Yes
Примечание : Рагнар Лодброк мечтает о походе на Запад, но местный правитель викингов предпочитает безопасные набеги на бедные соседние земли. Заручившись поддержкой семьи, герой решает ослушаться приказа и строит быстроходный корабль.
Part_ID : 101
rati : (Binary)
Видео
Идентификатор : 1
Формат : AVC
Формат/Информация : Advanced Video Codec
Профиль формата : [url=mailto:[email protected]][email protected][/url]
Параметр CABAC формата : Нет
Параметр ReFrames формата : 2 кадра
Идентификатор кодека : avc1
Идентификатор кодека/Информация : Advanced Video Coding
Продолжительность : 44 м.
Битрейт : 4246 Кбит/сек
Номинальный битрейт : 4000 Кбит/сек
Максимальный битрейт : 13,9 Мбит/сек
Ширина : 1280 пикселей
Высота : 720 пикселей
Соотношение сторон : 16:9
Режим частоты кадров : Переменный
Частота кадров : 23,976 кадра/сек
Минимальная частота кадров : 23,974 кадра/сек
Максимальная частота кадров : 23,981 кадра/сек
Цветовое пространство : YUV
Субдискретизация насыщенности : 4:2:0
Битовая глубина : 8 бит
Тип развёртки : Прогрессивная
Бит/(Пиксели*Кадры) : 0.192
Размер потока : 1,32 Гбайт (97%)
Библиотека кодирования : x264 core 112 r1834 a51816a
Настройки программы : cabac=0 / ref=3 / deblock=1:0:0 / analyse=0x1:0x111 / me=hex / subme=7 / psy=1 / psy_rd=1.00:0.00 / mixed_ref=1 / me_range=16 / chroma_me=1 / trellis=1 / 8x8dct=0 / cqm=0 / deadzone=21,11 / fast_pskip=1 / chroma_qp_offset=-2 / threads=6 / sliced_threads=0 / nr=0 / decimate=1 / interlaced=0 / constrained_intra=0 / bframes=3 / b_pyramid=2 / b_adapt=1 / b_bias=0 / direct=1 / weightb=1 / open_gop=0 / weightp=2 / keyint=250 / keyint_min=25 / scenecut=40 / intra_refresh=0 / rc_lookahead=40 / rc=abr / mbtree=1 / bitrate=4000 / ratetol=1.0 / qcomp=0.60 / qpmin=0 / qpmax=51 / qpstep=4 / vbv_maxrate=5000 / vbv_bufsize=2000 / ip_ratio=1.40 / aq=1:1.00 / nal_hrd=none
Язык : English
Дата пометки : UTC 2014-07-17 08:29:50
Основные цвета : BT.709
Характеристики трансфера : BT.709
Коэффициенты матрицы : BT.709
Аудио
Идентификатор : 2
Формат : AAC
Формат/Информация : Advanced Audio Codec
Профиль формата : LC
Идентификатор кодека : 40
Продолжительность : 44 м.
Вид битрейта : Переменный
Битрейт : 128 Кбит/сек
Максимальный битрейт : 218 Кбит/сек
Каналы : 2 канала
Расположение каналов : Front: L R
Частота : 48,0 КГц
Метод сжатия : С потерями
Размер потока : 40,6 Мбайт (3%)
Дата кодирования : UTC 2014-07-17 08:29:49
Дата пометки : UTC 2014-07-17 08:29:50

2 сезон

Полное имя : O:\Vikings_(all.sezon's)_WEB-DL720p_x264_LostFilm_[NNM-CLUB]\сезон 2\Vikings.S02E01.720p.WEB.rus. LostFilm.TV.mp4
Формат : MPEG-4
Профиль формата : Base Media
Идентификатор кодека : isom
Размер файла : 1,39 Гбайт
Продолжительность : 44 м.
Режим общего битрейта : Переменный
Общий поток : 4487 Кбит/сек
Коллекция : Викинги
Сезон : 2
Альбом : Викинги, Сезон 2
Альбом/Исполнитель : Викинги
Часть : 1
Часть/Положение : 2
Трек : Война братьев
Трек/Положение : 1
Исполнитель : Викинги
Жанр : Drama
Тип содержимого : TV Show
Дата записи : 2014
Дата кодирования : UTC 2014-08-14 10:27:35
Дата пометки : UTC 2014-08-14 10:27:35
Программа кодирования : Yamb 2.1.0.0 [http://yamb.unite-video.com] / LostCoder
Правообладатель : LostFilm.TV (c)
Обложка : Yes
Примечание : Рагнар Лодброк мечтает о походе на Запад, но местный правитель викингов предпочитает безопасные набеги на бедные соседние земли. Заручившись поддержкой семьи, герой решает ослушаться приказа и строит быстроходный корабль.
Part_ID : 201
Видео
Идентификатор : 1
Формат : AVC
Формат/Информация : Advanced Video Codec
Профиль формата : [url=mailto:[email protected]][email protected][/url]
Параметр CABAC формата : Нет
Параметр ReFrames формата : 2 кадра
Идентификатор кодека : avc1
Идентификатор кодека/Информация : Advanced Video Coding
Продолжительность : 44 м.
Битрейт : 4226 Кбит/сек
Номинальный битрейт : 4000 Кбит/сек
Максимальный битрейт : 12,7 Мбит/сек
Ширина : 1280 пикселей
Высота : 718 пикселей
Соотношение сторон : 16:9
Режим частоты кадров : Переменный
Частота кадров : 23,976 кадра/сек
Минимальная частота кадров : 23,974 кадра/сек
Максимальная частота кадров : 23,981 кадра/сек
Цветовое пространство : YUV
Субдискретизация насыщенности : 4:2:0
Битовая глубина : 8 бит
Тип развёртки : Прогрессивная
Бит/(Пиксели*Кадры) : 0.192
Размер потока : 1,31 Гбайт (94%)
Библиотека кодирования : x264 core 112 r1834 a51816a
Настройки программы : cabac=0 / ref=3 / deblock=1:0:0 / analyse=0x1:0x111 / me=hex / subme=7 / psy=1 / psy_rd=1.00:0.00 / mixed_ref=1 / me_range=16 / chroma_me=1 / trellis=1 / 8x8dct=0 / cqm=0 / deadzone=21,11 / fast_pskip=1 / chroma_qp_offset=-2 / threads=6 / sliced_threads=0 / nr=0 / decimate=1 / interlaced=0 / constrained_intra=0 / bframes=3 / b_pyramid=2 / b_adapt=1 / b_bias=0 / direct=1 / weightb=1 / open_gop=0 / weightp=2 / keyint=250 / keyint_min=25 / scenecut=40 / intra_refresh=0 / rc_lookahead=40 / rc=abr / mbtree=1 / bitrate=4000 / ratetol=1.0 / qcomp=0.60 / qpmin=0 / qpmax=51 / qpstep=4 / vbv_maxrate=5000 / vbv_bufsize=2000 / ip_ratio=1.40 / aq=1:1.00 / nal_hrd=none
Язык : English
Дата пометки : UTC 2014-08-14 10:28:11
Основные цвета : BT.709
Характеристики трансфера : BT.709
Коэффициенты матрицы : BT.709
Аудио
Идентификатор : 2
Формат : AAC
Формат/Информация : Advanced Audio Codec
Профиль формата : LC
Идентификатор кодека : 40
Продолжительность : 44 м.
Вид битрейта : Переменный
Битрейт : 255 Кбит/сек
Максимальный битрейт : 306 Кбит/сек
Каналы : 2 канала
Расположение каналов : Front: L R
Частота : 48,0 КГц
Метод сжатия : С потерями
Размер потока : 80,8 Мбайт (6%)
Дата кодирования : UTC 2014-08-14 10:28:09
Дата пометки : UTC 2014-08-14 10:28:11

3 сезон

Полное имя : O:\Vikings_(all.sezon's)_WEB-DL720p_x264_LostFilm_[NNM-CLUB]\сезон 3\Vikings.S03E01.720p.WEB.rus. LostFilm.TV.mp4
Формат : MPEG-4
Профиль формата : Base Media
Идентификатор кодека : isom
Размер файла : 1,36 Гбайт
Продолжительность : 45 м.
Режим общего битрейта : Переменный
Общий поток : 4294 Кбит/сек
Коллекция : Викинги
Сезон : 3
Альбом : Викинги, Сезон 3
Альбом/Исполнитель : Викинги
Часть : 1
Часть/Положение : 3
Трек : Наёмник
Трек/Положение : 1
Исполнитель : Викинги
Жанр : Drama
Тип содержимого : TV Show
Дата записи : 2015
Дата кодирования : UTC 2015-02-20 20:02:25
Дата пометки : UTC 2015-02-20 20:02:25
Программа кодирования : Yamb 2.1.0.0 [http://yamb.unite-video.com] / LostCoder
Правообладатель : LostFilm.TV (c)
Обложка : Yes
Примечание : Рагнар Лодброк мечтает о походе на Запад, но местный правитель викингов предпочитает безопасные набеги на бедные соседние земли. Заручившись поддержкой семьи, герой решает ослушаться приказа и строит быстроходный корабль.
Part_ID : 301
Видео
Идентификатор : 1
Формат : AVC
Формат/Информация : Advanced Video Codec
Профиль формата : [url=mailto:[email protected]][email protected][/url]
Параметр CABAC формата : Нет
Параметр ReFrames формата : 2 кадра
Идентификатор кодека : avc1
Идентификатор кодека/Информация : Advanced Video Coding
Продолжительность : 45 м.
Битрейт : 4000 Кбит/сек
Максимальный битрейт : 12,0 Мбит/сек
Ширина : 1280 пикселей
Высота : 718 пикселей
Соотношение сторон : 16:9
Режим частоты кадров : Переменный
Частота кадров : 23,976 кадра/сек
Минимальная частота кадров : 23,974 кадра/сек
Максимальная частота кадров : 23,981 кадра/сек
Цветовое пространство : YUV
Субдискретизация насыщенности : 4:2:0
Битовая глубина : 8 бит
Тип развёртки : Прогрессивная
Бит/(Пиксели*Кадры) : 0.182
Размер потока : 1,27 Гбайт (94%)
Библиотека кодирования : x264 core 112 r1834 a51816a
Настройки программы : cabac=0 / ref=3 / deblock=1:0:0 / analyse=0x1:0x111 / me=hex / subme=7 / psy=1 / psy_rd=1.00:0.00 / mixed_ref=1 / me_range=16 / chroma_me=1 / trellis=1 / 8x8dct=0 / cqm=0 / deadzone=21,11 / fast_pskip=1 / chroma_qp_offset=-2 / threads=6 / sliced_threads=0 / nr=0 / decimate=1 / interlaced=0 / constrained_intra=0 / bframes=3 / b_pyramid=2 / b_adapt=1 / b_bias=0 / direct=1 / weightb=1 / open_gop=0 / weightp=2 / keyint=250 / keyint_min=25 / scenecut=40 / intra_refresh=0 / rc_lookahead=40 / rc=abr / mbtree=1 / bitrate=4000 / ratetol=1.0 / qcomp=0.60 / qpmin=0 / qpmax=51 / qpstep=4 / vbv_maxrate=5000 / vbv_bufsize=2000 / ip_ratio=1.40 / aq=1:1.00 / nal_hrd=none
Язык : English
Дата пометки : UTC 2015-02-20 20:03:18
Основные цвета : BT.709
Характеристики трансфера : BT.709
Коэффициенты матрицы : BT.709
Аудио
Идентификатор : 2
Формат : AAC
Формат/Информация : Advanced Audio Codec
Профиль формата : LC
Идентификатор кодека : 40
Продолжительность : 45 м.
Вид битрейта : Переменный
Битрейт : 265 Кбит/сек
Максимальный битрейт : 339 Кбит/сек
Каналы : 2 канала
Расположение каналов : Front: L R
Частота : 48,0 КГц
Метод сжатия : С потерями
Размер потока : 87,0 Мбайт (6%)
Дата кодирования : UTC 2015-02-20 20:03:14
Дата пометки : UTC 2015-02-20 20:03:18

Список серий

1 сезон

01 - Обряд посвящения / Rites of Passage
02 - Гнев северян / Wrath of Northmen
03 - Обездоленные / Dispossessed
04 - Суд / Trial
05 - Налёт / Raid
06 - Погребение мёртвых / Burial of the Dead
07 - Королевский выкуп / A King's Ransom
08 - Жертво¬приношение / Sacrifice
09 - Всё меняется / All Change

2 сезон

01 - Война братьев / Brother's War
02 - Вторжение / Invasion
03 - Предательство / Treachery
04 - Око за око / Eye for an Eye
05 - Ответ кровью / Answers in Blood
06 - Непрощённый / Unforgiven
07 - Кровавый орел / Blood Eagle
08 - Бескостный / Boneless
09 - Выбор / The Choice
10 - Отче наш / The Lord's Prayer

3 сезон

01 - Наёмник / Mercenary

График выхода новых эпизодов

http://www.imdb.com/title/tt2306299/episodes?season=3&ref_=tt_eps_sn_3

Внимание! Раздача ведётся путём добавления новых серий

Внимание! Раздача ведётся путём добавления новых серий; при каждом добавлении создаётся новый торрент.
Чтобы начать докачку новой серии, пользователям необходимо сделать следующее:
1. Остановить скачивание;
2. Удалить старый торрент у себя из клиента (старые серии удалять не надо);
3. Скачать новый торрент и запустить его у себя в клиенте вместо старого, при этом указать клиенту путь в старую папку куда и должно происходить скачивание новых серий. Ваш клиент при этом должен произвести хеширование (проверку) старой папки и будет докачивать только те серии, которых у вас ещё нет. Старые серии при этом не удаляются, а продолжают раздаваться! Eсли вы уже удалили старые серии, то предотвратить повторную закачку старых серий можно, отжав галочку в соответствующих местах при запуске нового торрента.
21.02.2015. Добавлена 1-я серия 3-го сезона.Скриншоты:
Яндекс.Метрика
Рейтинг@Mail.ru