[ Сегодня на трекере фрилич! Идет свободное скачивание без начисления Download ]

Таймлесс 2: Сапфировая книга / Saphirblau (2014) BDRip 1080p | P | Лицензия

 

Создавать темы 22-Фев-2015 13:01

Оригинальное название: Saphirblau
Название: Таймлесс 2: Сапфировая книга
Жанр: Фантастика, фэнтези, драма, мелодрама, детектив
Режиссёр: Феликс Фуксштайнер, Катарина Шёде
Год: 2014
В ролях:
Мария Эрих, Яннис Нивёнер, Петер Симонишек, Йозефина Пройсс, Флориан Бартоломай, Руфус Бек, Лаура Берлин, Сандра Боргманн, Юстина дель Корте, Вероника Феррес

.. Приключения юной Гвендолин Шеферд - продолжаются. Она начинает все больше узнавать о тайнах мира путешественников во времени. Ей предстоит разгадать больше загадок и научиться быть светской леди для приемов в 18 веке. Гвендолин узнает больше о своей семье, в первую очередь о ее дедушке Лукасе. Также Гвен подозревает, что Гидеон скрывает что-то от нее, возможно какую-то сокровенную страшную тайну... Но с появлением нового, слегка надоедливого друга Ксемериуса, девушке становится легче преодолевать все препятствия на пути.
Страна: Германия
Продолжительность: 01:56:06
Перевод: Профессиональный (Многоголосый) [лицензия]
Контейнер: MKV
Кодек: MPEG-4 (AVC)
Качество: BDRip
Видео: 4591 kb/s, 1920x816
Звук: Russian: AC3, 384 kb/s (6 ch) / German: DTS, 1510 kb/s (6 ch)
Субтитры: Отсутствуют
Дополнительно: Сохранены оригинальные чаптеры, как на Blu-Ray-

Mediainfo:

Общее
Уникальный идентификатор : 212193928421279724549299575101906368111 (0x9FA310674F1B78A2B1F798ED61A2366F)
Полное имя : Таймлесс 2 Сапфировая книга Saphirblau (2014) BDRip 1080p ЛицензияTajmless.2.2014.P.BDRip.1080p.mkv
Формат : Matroska
Версия формата : Version 4 / Version 2
Размер файла : 5,37 Гбайт
Продолжительность : 1 ч. 56 м.
Общий поток : 6616 Кбит/сек
Дата кодирования : UTC 2015-02-21 07:32:04
Программа кодирования : mkvmerge v6.9.1 ('Blue Panther') 64bit built on Apr 18 2014 18:23:38
Библиотека кодирования : libebml v1.3.0 + libmatroska v1.4.1
Видео
Идентификатор : 1
Формат : AVC
Формат/Информация : Advanced Video Codec
Профиль формата : [email protected]
Параметр CABAC формата : Да
Параметр ReFrames формата : 5 кадров
Идентификатор кодека : V_MPEG4/ISO/AVC
Продолжительность : 1 ч. 56 м.
Битрейт : 4590 Кбит/сек
Ширина : 1920 пикселей
Высота : 816 пикселей
Соотношение сторон : 2,35:1
Режим частоты кадров : Постоянный
Частота кадров : 24,000 кадра/сек
Цветовое пространство : YUV
Субдискретизация насыщенности : 4:2:0
Битовая глубина : 8 бит
Тип развёртки : Прогрессивная
Бит/(Пиксели*Кадры) : 0.122
Размер потока : 3,72 Гбайт (69%)
Библиотека кодирования : x264 core 144 r2525 40bb568
Настройки программы : cabac=1 / ref=5 / deblock=1:-1:-1 / analyse=0x3:0x133 / me=umh / subme=7 / psy=1 / psy_rd=1.00:0.15 / mixed_ref=1 / me_range=16 / chroma_me=1 / trellis=1 / 8x8dct=1 / cqm=0 / deadzone=21,11 / fast_pskip=0 / chroma_qp_offset=-3 / threads=8 / lookahead_threads=1 / sliced_threads=0 / nr=0 / decimate=1 / interlaced=0 / bluray_compat=0 / constrained_intra=0 / bframes=3 / b_pyramid=2 / b_adapt=1 / b_bias=0 / direct=1 / weightb=1 / open_gop=0 / weightp=2 / keyint=250 / keyint_min=24 / scenecut=40 / intra_refresh=0 / rc_lookahead=40 / rc=crf / mbtree=1 / crf=20.0 / qcomp=0.60 / qpmin=0 / qpmax=69 / qpstep=4 / ip_ratio=1.40 / aq=1:1.00
Default : Да
Forced : Нет
Аудио #1
Идентификатор : 2
Формат : AC-3
Формат/Информация : Audio Coding 3
Расширение режима : CM (complete main)
Параметр Endianness формата : Big
Идентификатор кодека : A_AC3
Продолжительность : 1 ч. 56 м.
Вид битрейта : Постоянный
Битрейт : 384 Кбит/сек
Каналы : 6 каналов
Расположение каналов : Front: L C R, Side: L R, LFE
Частота : 48,0 КГц
Битовая глубина : 16 бит
Метод сжатия : С потерями
Размер потока : 319 Мбайт (6%)
Язык : Russian
Default : Да
Forced : Нет
Аудио #2
Идентификатор : 3
Формат : DTS
Формат/Информация : Digital Theater Systems
Идентификатор кодека : A_DTS
Продолжительность : 1 ч. 56 м.
Вид битрейта : Постоянный
Битрейт : 1510 Кбит/сек
Каналы : 6 каналов
Расположение каналов : Front: L C R, Side: L R, LFE
Частота : 48,0 КГц
Битовая глубина : 16 бит
Метод сжатия : С потерями
Размер потока : 1,22 Гбайт (23%)
Язык : German
Default : Нет
Forced : Нет
Меню
00:00:00.000 : en:00:00:00.000
00:11:35.542 : en:00:11:35.542
00:21:12.667 : en:00:21:12.667
00:32:21.417 : en:00:32:21.417
00:42:31.125 : en:00:42:31.125
00:52:59.958 : en:00:52:59.958
01:03:56.750 : en:01:03:56.750
01:11:59.958 : en:01:11:59.958
01:24:29.583 : en:01:24:29.583
01:35:17.333 : en:01:35:17.333
01:45:26.083 : en:01:45:26.083
01:48:29.667 : en:01:48:29.667
-

Скриншоты:

--
Яндекс.Метрика
Рейтинг@Mail.ru