Во все тяжкие / Breaking Bad / Сезон: 3 / Серии: 1-13 (13) (Адам Бернштейн / Adam Bernstein) [2010 г., триллер, драма, криминал, BDRip, 1080p] MVO (LostFilm) + DVO (Кубик в Кубе) + AVO (Ю. Сербин) + VO (Foxlight) + Original (Eng) + Sub (Rus, Eng)

 

Создавать темы 21-Фев-2015 06:56

-Во все тяжкие / Breaking Bad
(3 сезон)
-- Год выпуска: 2010
Производство: США
Жанр: триллер, драма, криминал
Продолжительность: 13х ~00:48:00
Перевод: Любительский (двухголосый, закадровый) Кубик в Кубе
Перевод 2: Авторский (одноголосый, закадровый) Ю. Сербин
Перевод 3: Любительский (многоголосый, закадровый) Lostfilm
Перевод 4: Профессиональный (одноголосый, закадровый) Foxlight(1001cinema)
Оригинальный аудиопоток: английский
Субтитры: русские
Режиссер: Адам Бернштейн / Adam Bernstein
В ролях: Брайан Крэнстон, Анна Ганн, Аарон Пол, Дин Норрис, Бетси Брандт, Эр Джей, Стивен Майкл Квезада, Кристен Риттер, Дэвид Хаус, Кармен Серано...
Описание: Основная канва сюжета развивается вокруг школьного учителя химии Уолтера Уайта, который узнаёт, что он болен раком лёгких. Учитывая сложное финансовое состояние дел семьи, а также перспективы (жена Уолтера, Скайлер, беременна вторым ребёнком, а у сына детский паралич), Уолтер решается на аферу по приготовлению наркотика метамфетамина. Для этого привлекается бывший ученик Джесси Пинкман, когда-то исключенный из школы при активном содействии Уолтера, недавно потерявший партнёра по изготовлению наркотика, знающий «бизнес».
Третий сезон великолепного сериала Во все тяжкие, расскажет:
После смерти Джейн, Уолтер и Джесси пошли своими жизненными путями. Гус предлагает Хайзенбергу работать на него. Он отстраивает для него супер лабораторию, по последнему слову, с условием, что в неделю Уайт будет производить 90 килограммов синего мет – амфетамина. Гус предлагает ему 3 миллиона долларов. Скайлер узнает о всех грязных делах своего мужа и подаёт на развод. Уолтера младшего она разумеется держит в неведении. Между тем, двое загадочных мексиканцев разыскивают Хайзенберга, чтоб отомстить ему за смерть Туко.- , , -Качество видео: BDRip
Контейнер: MKV
Стандарт разрешения: 1080p
Видео кодек: H.264/AVC
Аудио кодек: DTS, AC3
Видео: 1920x1080 (16:9), 23.976 fps, ~12.5 Mbps avg
Аудио : (RUS) 48 kHz, DTS, 5.1 ch, ~1510 kbps avg - |Двухголосый закадровый, Кубик в Кубе|
Аудио #2: (RUS) 48 kHz, DTS, 5.1 ch, ~1510 kbps avg - |Авторский одноголосый, Ю. Сербин|
Аудио #3: (RUS) 48 kHz, DTS, 5.1 ch, ~1510 kbps avg - |Многоголосый закадровый, LostFilm|
Аудио #4: (RUS) 48 kHz, AC3, 5.1 ch, ~640 kbps avg - |Одноголосый закадровый, Foxlight(1001cinema)|
Аудио #5: (RUS) 48 kHz, DTS, 5.1 ch, ~1510 kbps avg - |Original|
Аудио #6: (ENG) 48 kHz, AC3, 2/0 (L,R) ch, ~192 kbps avg - |Commentary|
Субтитры: Russian (Forced, Full), English

Список серий

Episode 1: No Mas / Хватит!
Episode 2: Caballo Sin Nombre / Безымянный Конь
Episode 3: I.F.T / Я трахлась с Тедом
Episode 4: Green Light / Зеленый Свет
Episode 5: Mas / Снова В Деле
Episode 6: Sunset / Закат
Episode 7: One Minute / Одна Минута
Episode 8: I See You / Вижу тебя
Episode 9: Kafkaesque / В Стиле Кафки
Episode 10: Fly / Муха
Episode 11: Abiquiu / Эбикью
Episode 12: Half Measures / Полумеры
Episode 13: Full Measures / Полные меры

Media Info

General
Complete name                    : T:\Uploads\Pirat.Ca\Breaking Bad - Season 3 (2010)[BDRip.1080p]\Breaking.Bad.S03E01.1080p.Bluray.mkv
Format                           : Matroska
File size                        : 6.39 GiB
Duration                         : 47mn 42s
Overall bit rate                 : 19.2 Mbps
Movie name                       : Breaking Bad 3x01 - No Mas @ СПАМ.org by -lostrator-
Encoded date                     : UTC 2014-09-15 10:06:25
Writing application              : mkvmerge v2.0.2 ('You're My Flame') built on Feb 21 2007 23:40:55
Writing library                  : libebml v0.7.7 + libmatroska v0.8.1
Cover                            : Imported font from Breaking.Bad.S03E01.720p rus.ass / Imported font from Breaking.Bad.S03E01.720p rus.ass / Imported font from Breaking.Bad.S03E01.720p rus.ass / Imported font from Breaking.Bad.S03E01.720p rus.ass / Imported font from Breaking.Bad.S03E01.720p rus.ass
Video
ID                               : 1
Format                           : AVC
Format/Info                      : Advanced Video Codec
Format profile                   : [email protected]
Format settings, CABAC           : Yes
Format settings, ReFrames        : 4 frames
Muxing mode                      : Container [email protected]
Codec ID                         : V_MPEG4/ISO/AVC
Duration                         : 47mn 42s
Bit rate                         : 12.5 Mbps
Width                            : 1 920 pixels
Height                           : 1 080 pixels
Display aspect ratio             : 16:9
Frame rate                       : 23.976 fps
Color space                      : YUV
Chroma subsampling               : 4:2:0
Bit depth                        : 8 bits
Scan type                        : Progressive
Bits/(Pixel*Frame)               : 0.251
Stream size                      : 3.98 GiB (62%)
Writing library                  : x264 core 114 r1900 60ef1f8
Encoding settings                : cabac=1 / ref=4 / deblock=1:-3:-3 / analyse=0x3:0x113 / me=umh / subme=9 / psy=1 / psy_rd=1.00:0.00 / mixed_ref=1 / me_range=32 / chroma_me=1 / trellis=1 / 8x8dct=1 / cqm=0 / deadzone=21,11 / fast_pskip=0 / chroma_qp_offset=-2 / threads=9 / sliced_threads=0 / nr=0 / decimate=0 / interlaced=0 / constrained_intra=0 / bframes=6 / b_pyramid=2 / b_adapt=1 / b_bias=0 / direct=1 / weightb=1 / open_gop=0 / weightp=2 / keyint=250 / keyint_min=23 / scenecut=40 / intra_refresh=0 / rc_lookahead=40 / rc=2pass / mbtree=1 / bitrate=12500 / ratetol=1.0 / qcomp=0.60 / qpmin=0 / qpmax=69 / qpstep=4 / cplxblur=20.0 / qblur=0.5 / ip_ratio=1.40 / aq=1:0.80
Language                         : English
Audio #1
ID                               : 2
Format                           : DTS
Format/Info                      : Digital Theater Systems
Codec ID                         : A_DTS
Duration                         : 47mn 42s
Bit rate mode                    : Constant
Bit rate                         : 1 510 Kbps
Channel(s)                       : 6 channels
Channel positions                : Front: L C R, Side: L R, LFE
Sampling rate                    : 48.0 KHz
Bit depth                        : 16 bits
Stream size                      : 515 MiB (8%)
Title                            : Кубик в Кубе [DTS 6ch 1509 kbps]
Language                         : Russian
Audio #2
ID                               : 3
Format                           : DTS
Format/Info                      : Digital Theater Systems
Codec ID                         : A_DTS
Duration                         : 47mn 42s
Bit rate mode                    : Constant
Bit rate                         : 1 510 Kbps
Channel(s)                       : 6 channels
Channel positions                : Front: L C R, Side: L R, LFE
Sampling rate                    : 48.0 KHz
Bit depth                        : 16 bits
Stream size                      : 515 MiB (8%)
Title                            : Сербин [DTS 6ch 1509 kbps]
Language                         : Russian
Audio #3
ID                               : 4
Format                           : DTS
Format/Info                      : Digital Theater Systems
Codec ID                         : A_DTS
Duration                         : 47mn 42s
Bit rate mode                    : Constant
Bit rate                         : 1 510 Kbps
Channel(s)                       : 6 channels
Channel positions                : Front: L C R, Side: L R, LFE
Sampling rate                    : 48.0 KHz
Bit depth                        : 16 bits
Stream size                      : 515 MiB (8%)
Title                            : Lostfilm [DTS 6ch 1509 kbps]
Language                         : Russian
Audio #4
ID                               : 5
Format                           : AC-3
Format/Info                      : Audio Coding 3
Mode extension                   : CM (complete main)
Codec ID                         : A_AC3
Duration                         : 47mn 42s
Bit rate mode                    : Constant
Bit rate                         : 640 Kbps
Channel(s)                       : 6 channels
Channel positions                : Front: L C R, Side: L R, LFE
Sampling rate                    : 48.0 KHz
Bit depth                        : 16 bits
Stream size                      : 218 MiB (3%)
Title                            : Foxlight [AC3 6ch 640 kbps]
Language                         : Russian
Audio #5
ID                               : 6
Format                           : DTS
Format/Info                      : Digital Theater Systems
Codec ID                         : A_DTS
Duration                         : 47mn 42s
Bit rate mode                    : Constant
Bit rate                         : 1 510 Kbps
Channel(s)                       : 6 channels
Channel positions                : Front: L C R, Side: L R, LFE
Sampling rate                    : 48.0 KHz
Bit depth                        : 24 bits
Stream size                      : 515 MiB (8%)
Title                            : Оригинал [DTS 6ch 1509 kbps]
Language                         : English
Audio #6
ID                               : 7
Format                           : AC-3
Format/Info                      : Audio Coding 3
Mode extension                   : CM (complete main)
Codec ID                         : A_AC3
Duration                         : 47mn 42s
Bit rate mode                    : Constant
Bit rate                         : 192 Kbps
Channel(s)                       : 2 channels
Channel positions                : Front: L R
Sampling rate                    : 48.0 KHz
Bit depth                        : 16 bits
Stream size                      : 65.5 MiB (1%)
Title                            : Commentary
Language                         : Russian
Text #1
ID                               : 8
Format                           : ASS
Codec ID                         : S_TEXT/ASS
Codec ID/Info                    : Advanced Sub Station Alpha
Title                            : Forced
Language                         : Russian
Text #2
ID                               : 9
Format                           : ASS
Codec ID                         : S_TEXT/ASS
Codec ID/Info                    : Advanced Sub Station Alpha
Title                            : Full
Language                         : Russian
Text #3
ID                               : 10
Format                           : ASS
Codec ID                         : S_TEXT/ASS
Codec ID/Info                    : Advanced Sub Station Alpha
Title                            : English
Language                         : English
Menu
00:00:00.000                     : en:00:00:00.000
00:04:13.044                     : en:00:04:13.044
00:13:27.807                     : en:00:13:27.807
00:25:12.511                     : en:00:25:12.511
00:36:00.367                     : en:00:36:00.367
00:46:29.578                     : en:00:46:29.578

Скриншоты

Яндекс.Метрика
Рейтинг@Mail.ru