[ Сегодня на трекере фрилич! Идет свободное скачивание без начисления Download ]

Бруклин 9-9 / Brooklyn Nine-Nine / Сезон 2 / Серии: 16 из 22 (Крейг Зиск / Craig Zisk, ...) [2014г., комедия, криминал, ... WEB-DL, 720p] MVO (NewStudio) + Original (Eng) [обновляемая]

 

Создавать темы 21-Фев-2015 06:43

Бруклин 9-9 / Brooklyn Nine-Nine
«The law. Without the order»
- Производство: США
Жанр: комедия, криминал, ...
Год выпуска: 2014 г.-Мировая премьера: 17 Сентября 2013-Озвучка: Студия |NewStudio|
Перевод: Многоголосый закадровый, профессиональный
Оригинальный аудиопоток: английский-Перевод: Александра Цернант, Юрий Башенкер
Постер: Vortex-Режиссер: Крейг Зиск / Craig Zisk, Джули Энн Робинсон / Julie Anne Robinson, Джейсон Энслер / Jason Ensler, ...-В ролях: Энди Сэмберг, Андре Брогер, Терри Крюс, Мелисса Фумеро, Джо Ло Трульо, Стефани Беатриз, Челси Перетти, Дирк Блокер, Джоэль МакКиннон Миллер, Peter Janov, ...-Описание:
История о том, что происходит, когда у детектива, не воспринимающего ничего серьезно, появляется новый руководитель, который хочет, чтобы он рос и с уважением относился к своей должности.-Сезон: 2
Серии: 16 из 22 серий
Продолжительность: ~ 00:42:00 мин серия-
Качество видео: WEB-DL 720p
Контейнер: MKV
Видео кодек: AVC ([email protected])
Аудио кодек: AC-3
Видео: AVC at 3917 Кбит/сек: 1280 x 720 (1.778) at 23.976 fps
Аудио Rus: AC-3 at 384 Кбит/сек: 6 каналов, 48,0 КГц |NewStudio|
Аудио Eng: AC-3 at 384 Кбит/сек: 6 каналов, 48,0 КГц |Original|
Cубтитры: отсутствуют
- -

Список серий:

  • Под прикрытием (Undercover)
  • Шоколадное молоко (Chocolate Milk)
  • Джимми Джебовые игры (The Jimmy Jab Games)
  • Хэллоуин 2 (Halloween II)
  • Крот (The Mole)
  • Джейк и София (Jake and Sophia)
  • Карантин (Lockdown)
  • Детектор (USPIS)
  • Поездка (The Road Trip)
  • Бандит Понтиака возвращается (The Pontiac Bandit Returns)
  • Слежка (Stakeout)
  • Пляжный домик (Beach House)
  • Срок окупаемости (Payback)
  • Остатки обороны (Defense Rests)
  • Город ветровок (Windbreaker City)
  • (The Wednesday Incident)
-

MediaInfo:

Общее
Уникальный идентификатор : 203579375555143703962679230844495026016 (0x9927F627C192A333A5CAE68DBCC55760)
Полное имя : E:\_Сериалы\_Сериалы\Бруклин 9-9\Brooklyn Nine-Nine.s02.NewStudio\Brooklyn.Nine.Nine.S02E01.WEBDL.720p.NewStudio.TV.mkv
Формат : Matroska
Версия формата : Version 2
Размер файла : 739 Мбайт
Продолжительность : 21 м.
Общий поток : 4780 Кбит/сек
Дата кодирования : UTC 2014-09-30 21:49:15
Программа кодирования : mkvmerge v2.9.9 ('Tutu') built on Nov 25 2009 21:13:32
Библиотека кодирования : libebml v0.7.9 + libmatroska v0.8.1
Обложка : Yes / Yes / Yes / Yes
Видео
Идентификатор : 1
Формат : AVC
Формат/Информация : Advanced Video Codec
Профиль формата : [email protected]
Параметр CABAC формата : Нет
Параметр ReFrames формата : 2 кадра
Идентификатор кодека : V_MPEG4/ISO/AVC
Продолжительность : 21 м.
Битрейт : 3917 Кбит/сек
Ширина : 1280 пикселей
Высота : 720 пикселей
Соотношение сторон : 16:9
Режим частоты кадров : Постоянный
Частота кадров : 23,976 кадра/сек
Цветовое пространство : YUV
Субдискретизация насыщенности : 4:2:0
Битовая глубина : 8 бит
Тип развёртки : Прогрессивная
Бит/(Пиксели*Кадры) : 0.177
Размер потока : 606 Мбайт (82%)
Язык : English
Default : Нет
Forced : Нет
Основные цвета : BT.709
Характеристики трансфера : BT.709
Коэффициенты матрицы : BT.709
Аудио #1
Идентификатор : 2
Формат : AC-3
Формат/Информация : Audio Coding 3
Расширение режима : CM (complete main)
Параметр Endianness формата : Big
Идентификатор кодека : A_AC3
Продолжительность : 21 м.
Вид битрейта : Постоянный
Битрейт : 384 Кбит/сек
Каналы : 6 каналов
Расположение каналов : Front: L C R, Side: L R, LFE
Частота : 48,0 КГц
Битовая глубина : 16 бит
Метод сжатия : С потерями
Размер потока : 59,4 Мбайт (8%)
Язык : Russian
Default : Да
Forced : Да
Аудио #2
Идентификатор : 3
Формат : AC-3
Формат/Информация : Audio Coding 3
Расширение режима : CM (complete main)
Параметр Endianness формата : Big
Идентификатор кодека : A_AC3
Продолжительность : 21 м.
Вид битрейта : Постоянный
Битрейт : 384 Кбит/сек
Каналы : 6 каналов
Расположение каналов : Front: L C R, Side: L R, LFE
Частота : 48,0 КГц
Битовая глубина : 16 бит
Метод сжатия : С потерями
Размер потока : 59,4 Мбайт (8%)
Язык : English
Default : Нет
Forced : Нет
-

Скриншот c названием фильма

-Скриншоты:
-

Еще

-

Внимание! Раздача ведётся путём добавления новых серий!

Раздача ведётся путём добавления новых серий; при каждом добавлении создаётся новый торрент.
Чтобы начать докачку новой серии, пользователям необходимо сделать следующее:
1. остановить скачивание,
2. удалить старый торрент у себя из клиента (старые серии удалять не надо),
3. скачать новый торрент и запустить его у себя в клиенте вместо старого, при этом указать клиенту путь в старую папку, куда и должно происходить скачивание новых серий.
Ваш клиент при этом должен произвести хеширование (проверку) старой папки (если не производит сам - помогите ему сделать это), и будет докачивать только те серии которых у вас ещё нет. Старые серии при этом не удаляются, а продолжают раздаваться!
Eсли вы уже удалили старые серии, то предотвратить повторную закачку старых серий можно, отжав галочку в соответствующих местах при запуске нового торрента. По возможности, желательно не удалять старые серии как можно дольше, чтобы релизёр не столько продолжал раздавать старые серии, а смог сконцентрироваться на новых.
Совет для тех, кто не хочет ждать перехеширования:
Создайте ещё одну папку рядом с папкой сериала (рядом, а не в ней!!!). Каждую новую серию после удачной загрузки копируйте в новую папку так чтобы ваша основная папка всегда была пуста. Когда ваш новый торрент предложит вам закачать все файлы, выберете только последнюю. Для сидирования же укажите адрес новой папки.
Как закачать отдельный файл из торрента или докачать ранее пропущенные файлы торрента!
-

Как закачать отдельный файл

1. Открыть торрент
2. Снять галки с тех файлов торрента, которые мы не хотим закачивать. Оставляем только на нужных нам файлах (файле).
3. Нажать О.К.
В клиенте utorrent
Инструкция
1) Открыть торрент

2) Снять галки с тех файлов торрента, которые мы не хотим закачивать:
* либо вручную, снимая с каждого файла галку( скрин №1)
* либо, нажав кнопку "Снять метки (Select None)", сняв сразу со всех файлов(скрин №2)
№1

№2

Оставляем только на нужных нам файлах (файле).

3)Нажать О.К
-Добавлена шестнадцатая серия второго сезона
Яндекс.Метрика
Рейтинг@Mail.ru