Вам – задание (Юрий Бержицкий) [2004 г., военный, DVDRip]

 

Создавать темы 21-Фев-2015 06:40

-Вам – задание-- Производство: Беларусь, Беларусьфильм
Режиссер: Юрий Бержицкий
Жанр: военный
Год выпуска: 2004 г.
Продолжительность: 01:18:28
В ролях: Виталий Ходин, Валентин Клементьев, Альбинас Келярис, Валерия Арланова, Наталья Винтилова, Вячеслав Кулаков, Светлана Кожемякина, Евгений Дмитриев, Майкл Брезанский, Андрей Олиференко, Татьяна Гаркуша, Татьяна Попова, Александр Сухоцкий, Евгений Никитин, Алексей Турович, Геннадий Шкуратов, Евгений Бахар, Александр Беспалый, Владимир Грицевский, Андрей Душечкин, Регина Домбровская, Тамара Миронова, Геннадий Овсянников, Арнольд Помазан, Алена Сидорова, Анатолий Терпицкий, Валерий Шушкевич-Описание: Действие фильма начинается весной 1941 года и завершается первыми месяцами после освобождения Беларуси. В центре сюжета - история трёх братьев Купревичей. В июне 1941 года лейтенанта милиции Алексея Купревича из Минска командируют в Западную Украину, где в одном из селений орудует банда. Но начинается война. Алексей и его брат, старший лейтенант милиции Пётр Купревич, получают задание уничтожить высадившийся под Селищами немецкий десант. А их младший брат Володя оказывается вместе с родителями в оккупированном Минске...-Качество видео: DVDRip
Контейнер: AVI
Видео кодек: XviD
Аудио кодек: MP3
Видео: 704x480; 908 kbps; 25 fps; 0.107 bit/pixel
Аудио: 384 kbps; 2 ch; 48 kHz
Cубтитры: отсутствуют

Media Info

General
Complete name : D:\Torrent\Vam_zadanie_[Pirat.ca].torrent.avi
Format : AVI
Format/Info : Audio Video Interleave
File size : 703 MiB
Duration : 1h 15mn
Overall bit rate : 1 301 Kbps
Writing application : VirtualDubMod 1.5.10.2 (build 2540/release)
Writing library : VirtualDub build 35390/release
Video
ID : 0
Format : MPEG-4 Visual
Format profile : Advanced [email protected]
Format settings, BVOP : 2
Format settings, QPel : No
Format settings, GMC : No warppoints
Format settings, Matrix : Default (H.263)
Muxing mode : Packed bitstream
Codec ID : XVID
Codec ID/Hint : XviD
Duration : 1h 15mn
Bit rate : 908 Kbps
Width : 704 pixels
Height : 480 pixels
Display aspect ratio : 3:2
Frame rate : 25.000 fps
Standard : NTSC
Color space : YUV
Chroma subsampling : 4:2:0
Bit depth : 8 bits
Scan type : Progressive
Compression mode : Lossy
Bits/(Pixel*Frame) : 0.107
Stream size : 491 MiB (70%)
Writing library : XviD 64
Audio
ID : 1
Format : AC-3
Format/Info : Audio Coding 3
Mode extension : CM (complete main)
Format settings, Endianness : Big
Codec ID : 2000
Duration : 1h 15mn
Bit rate mode : Constant
Bit rate : 384 Kbps
Channel(s) : 2 channels
Channel positions : Front: L R
Sampling rate : 48.0 KHz
Bit depth : 16 bits
Compression mode : Lossy
Delay relative to video : 16ms
Stream size : 208 MiB (30%)
Alignment : Split accross interleaves
Interleave, duration : 40 ms (1.00 video frame)
Interleave, preload duratio : 500 ms

Скриншоты

Раздача с 14.00 до 2.00 (время московское)
Яндекс.Метрика
Рейтинг@Mail.ru