Слизняк / Slither (Джеймс Ганн / James Gunn) [2006 г., Ужасы, фантастика, комедия, BDRip, 720p] AVO (Юрий Немахов) + original (Eng)

 

Создавать темы 21-Фев-2015 06:14

Слизняк / Slither
Год выпуска: 2006
Производство: Канада, США
Жанр: Ужасы, фантастика, комедия
Продолжительность: 01:35:42
Перевод: Авторский (одноголосый, закадровый) Юрий Немахов
Оригинальный аудиопоток: английский
Субтитры: отсутствуют
Режиссер: Джеймс Ганн / James Gunn
В ролях: Дон Томпсон, Натан Филлион, Роб Зомби, Грегг Генри, Элизабет Бэнкс, Таня Солнье, Дастин Миллиган, Майкл Рукер, Хэйг Сазерленд, Дженнифер Коппинг
Описание: Грант Грант, житель маленького городка Уилси, обнаруживает в лесу упавший метеорит. Из этого космического тела исторгается некая субстанция, которая тут же поселяется в груди Гранта. После этого с ним начинают происходить странные метаморфозы.
Он постоянно испытывает сильный голод, а его тело подвергается трансформациям. Когда же Грант осознает свое новое предназначение, он бросается превращать других жителей городка в таких же, как и он, ненасытных зомби. Первым делом Грант хочет проделать это с собственной женой Старлой, однако местный шериф Билл Парди делает все, чтобы защитить ее и весь город от космической чумы…
Сэмпл , , КиноПоиск
Качество видео: BDRip
Контейнер: MKV
Стандарт разрешения: 720p
Видео кодек: H.264
Аудио кодек: AC3
Видео: 1280x692, 23.976 fps, 7805 Kbps, 0.368 Bt/Px
Аудио #1: AC-3, 384 Kbps, 6 ch, 48.0 KHz Rus Немахов
Аудио #2: AC-3, 384 Kbps, 6 ch, 48.0 KHz Eng Original

Доп. информация

Разрешение на использование авторского перевода, получено.

Media Info

G:\загрузки\Slither_[Pirat.ca].torrent.mkv
General
Unique ID : 171448374528832600435728548872605603814 (0x80FBC17EDF2CA872B27AB5B1671717E6)
Complete name : G:\загрузки\Slither_[Pirat.ca].torrent.mkv
Format : Matroska
Format version : Version 1
File size : 5.85 GiB
Duration : 1h 35mn
Overall bit rate : 8 748 Kbps
Encoded date : UTC 2015-02-16 17:50:24
Writing application : mkvmerge v2.5.3 ('Boogie') built on Mar 7 2009 15:00:41
Writing library : libebml v0.7.7 + libmatroska v0.8.1
Video #1
ID : 1
Format : AVC
Format/Info : Advanced Video Codec
Format profile : [email protected]
Format settings, CABAC : Yes
Format settings, ReFrames : 9 frames
Codec ID : V_MPEG4/ISO/AVC
Duration : 1h 35mn
Bit rate : 7 805 Kbps
Width : 1 280 pixels
Height : 692 pixels
Display aspect ratio : 1.85:1
Frame rate mode : Constant
Frame rate : 23.976 fps
Color space : YUV
Chroma subsampling : 4:2:0
Bit depth : 8 bits
Scan type : Progressive
Bits/(Pixel*Frame) : 0.368
Stream size : 5.22 GiB (89%)
Writing library : x264 core 130 r2273 b3065e6
Encoding settings : cabac=1 / ref=9 / deblock=1:-3:-3 / analyse=0x3:0x133 / me=umh / subme=11 / psy=1 / psy_rd=1.00:0.15 / mixed_ref=1 / me_range=32 / chroma_me=1 / trellis=2 / 8x8dct=1 / cqm=0 / deadzone=21,11 / fast_pskip=1 / chroma_qp_offset=-3 / threads=6 / lookahead_threads=1 / sliced_threads=0 / nr=0 / decimate=1 / interlaced=0 / bluray_compat=0 / constrained_intra=0 / bframes=8 / b_pyramid=2 / b_adapt=2 / b_bias=0 / direct=1 / weightb=1 / open_gop=0 / weightp=2 / keyint=250 / keyint_min=23 / scenecut=40 / intra_refresh=0 / rc=crf / mbtree=0 / crf=18.6 / qcomp=0.60 / qpmin=0 / qpmax=51 / qpstep=4 / ip_ratio=1.40 / pb_ratio=1.30 / aq=1:1.00
Language : English
Default : Yes
Forced : No
Audio #2
ID : 2
Format : AC-3
Format/Info : Audio Coding 3
Mode extension : CM (complete main)
Format settings, Endianness : Big
Codec ID : A_AC3
Duration : 1h 35mn
Bit rate mode : Constant
Bit rate : 384 Kbps
Channel(s) : 6 channels
Channel positions : Front: L C R, Side: L R, LFE
Sampling rate : 48.0 KHz
Bit depth : 16 bits
Compression mode : Lossy
Stream size : 263 MiB (4%)
Title : AVO Немахов
Language : Russian
Default : Yes
Forced : No
Audio #3
ID : 3
Format : AC-3
Format/Info : Audio Coding 3
Mode extension : CM (complete main)
Format settings, Endianness : Big
Codec ID : A_AC3
Duration : 1h 35mn
Bit rate mode : Constant
Bit rate : 384 Kbps
Channel(s) : 6 channels
Channel positions : Front: L C R, Side: L R, LFE
Sampling rate : 48.0 KHz
Bit depth : 16 bits
Compression mode : Lossy
Stream size : 263 MiB (4%)
Language : English
Default : No
Forced : No

log x.264

x264 [info]: frame I:1222  Avg QP:16.77  size:138257
x264 [info]: frame P:26143 Avg QP:17.34 size: 69742
x264 [info]: frame B:110311 Avg QP:19.39 size: 33838
x264 [info]: consecutive B-frames: 1.5% 1.6% 3.5% 14.1% 15.0% 43.2% 7.9% 3.9% 9.3%
x264 [info]: mb I I16..4: 15.8% 64.4% 19.9%
x264 [info]: mb P I16..4: 2.4% 25.1% 3.3% P16..4: 21.7% 25.3% 10.5% 1.5% 0.1% skip:10.0%
x264 [info]: mb B I16..4: 0.5% 5.9% 0.5% B16..8: 32.3% 22.4% 5.3% direct:10.0% skip:23.1% L0:45.4% L1:39.8% BI:14.8%
x264 [info]: 8x8 transform intra:82.0% inter:50.7%
x264 [info]: coded y,uvDC,uvAC intra: 87.2% 91.8% 85.6% inter: 39.6% 44.8% 23.7%
x264 [info]: i16 v,h,dc,p: 40% 11% 19% 31%
x264 [info]: i8 v,h,dc,ddl,ddr,vr,hd,vl,hu: 9% 7% 14% 10% 13% 12% 12% 11% 13%
x264 [info]: i4 v,h,dc,ddl,ddr,vr,hd,vl,hu: 29% 6% 12% 7% 10% 9% 9% 8% 10%
x264 [info]: i8c dc,h,v,p: 60% 13% 11% 16%
x264 [info]: Weighted P-Frames: Y:10.2% UV:5.6%
x264 [info]: ref P L0: 37.3% 8.8% 22.5% 8.6% 7.6% 4.7% 4.9% 2.5% 2.8% 0.3% 0.0%
x264 [info]: ref B L0: 64.1% 15.9% 7.8% 4.5% 3.2% 2.7% 1.4% 0.4%
x264 [info]: ref B L1: 90.2% 9.8%
x264 [info]: kb/s:7975.88
x264 [total]: encoded 137676 frames, 3.36 fps, 7975.88 kb/s

Скриншоты

Яндекс.Метрика
Рейтинг@Mail.ru