Мистер Селфридж / Mr. Selfridge / Сезон: 3 / Серии: 1-3 из 10 (Энтони Бирн / Antony Byrne, ...) [2015, драма, костюмированный, WEB-DLRip] MVO (ViruseProject)

 

Создавать темы 21-Фев-2015 06:11

Мистер Селфридж / Mr. Selfridge
Год выпуска: 2015
Страна: Великобритания
Жанр: драма, костюмированный
Продолжительность: 10 x ~00:47:00
Перевод: Профессиональный (многоголосый закадровый) ViruseProject
Русские субтитры: нет
Режиссёр: Энтони Бирн / Antony Byrne, Майкл Кейллор / Michael Keillor, Джон Джонс / John Jones
В ролях: Джереми Пивен, Сефора Венитес, Том Гудман-Хилл, Аманда Аббингтон, Поппи Ли Фрайер, Кэтерин Келли, Уилл Пэйн, Роанна Кокрейн, Зои Таппер, Дэниэл Чаппл и др.
Описание: В центре внимания амбициозного проекта — американский предприниматель, Г. Г. Селфридж, в 1906 году, во время своего первого визита в Лондон, утвердившийся во мнении, что Англия испытывает дефицит толковых торговых центров, и открывший своё первое подобное заведение в 1909-м. Мы увидим взлёт и падение бизнесмена-революционера, растянувшиеся на три десятилетия, с 1909 по 1939.


Закадровое озвучание: Елена Емельянова, Полина Касаткина, Алексей Кизуб, Валерий Смекалов
Перевод, подготовка видео: Евгений Шаров
Сведение звука, монтаж: Виталий Емельянов
смотреть СЕМПЛ на youtube
скачать СЕМПЛ с multi-up
Качество: WEB-DLRip
Формат: AVI
Видео кодек: XviD
Аудио кодек: MP3
Видео: 720x400 (1.80:1), 25 fps, XviD MPEG-4 ~1501 kbps avg, 0.21 bit/pixel
Аудио: 48 kHz, MPEG Layer 3, 2 ch, ~192.00 kbps avg

MediaInfo

General
Complete name : E:\ОЗВУЧКА\СЕРИАЛЫ №2\Mr.Selfridge.S03.ViruseProject\Mr.Selfridge.S03.ViruseProject\Mr.Selfridge.S03E01.ViruseProject.avi
Format : AVI
Format/Info : Audio Video Interleave
File size : 546 MiB
Duration : 44mn 47s
Overall bit rate : 1 704 Kbps
Writing application : VirtualDubMod 1.5.10.2 (build 2540/release)
Writing library : VirtualDubMod build 2540/release
Video
ID : 0
Format : MPEG-4 Visual
Format profile : Advanced [email protected]
Format settings, BVOP : 2
Format settings, QPel : No
Format settings, GMC : No warppoints
Format settings, Matrix : Default (H.263)
Muxing mode : Packed bitstream
Codec ID : XVID
Codec ID/Hint : XviD
Duration : 44mn 47s
Bit rate : 1 502 Kbps
Width : 720 pixels
Height : 400 pixels
Display aspect ratio : 16:9
Frame rate : 25.000 fps
Color space : YUV
Chroma subsampling : 4:2:0
Bit depth : 8 bits
Scan type : Progressive
Compression mode : Lossy
Bits/(Pixel*Frame) : 0.209
Stream size : 481 MiB (88%)
Writing library : XviD 1.2.1 (UTC 2008-12-04)
Audio
ID : 1
Format : MPEG Audio
Format version : Version 1
Format profile : Layer 3
Mode : Joint stereo
Codec ID : 55
Codec ID/Hint : MP3
Duration : 44mn 47s
Bit rate mode : Constant
Bit rate : 192 Kbps
Channel(s) : 2 channels
Sampling rate : 48.0 KHz
Compression mode : Lossy
Stream size : 61.5 MiB (11%)
Alignment : Aligned on interleaves
Interleave, duration : 40 ms (1.00 video frame)
Interleave, preload duratio : 504 ms
Writing library : LAME3.90.3

Внимание! Раздача ведётся путём добавления новых серий.

Внимание! Раздача ведётся путём добавления новых серий; при каждом добавлении создётся новый торрент. Чтобы начать докачку новой серии, пользователям необходимо сделать следующее:
Остановить скачивание.
Удалить старый торрент у себя из клиента (старые серии удалять не надо).
Скачать новый торрент и запустить его у себя в клиенте вместо старого, при этом указать клиенту путь в старую папку куда и должно происходить скачивание новых серий.
Ваш клиент при этом должен произвести хеширование (проверку) старой папки (если не производит сам - помогите ему сделать это), и будет докачивать только те серии которых у вас ещё нет. Старые серии при этом не удаляются, а продолжают раздаваться!
Eсли вы уже удалили старые серии, то предотвратить повторную закачку старых серий можно, отжав галочку в соответсвующих местах при запуске нового торрента. По возможности, желательно не удалять старые серии как можно дольше чтобы релизёр не столько продолжал раздавать старые серии, а смог сконцентрироваться на новых.
Яндекс.Метрика
Рейтинг@Mail.ru