(Psytrance/Full On) Mekkanika - California Dreaming - 2011 [FLAC, tracks+.cue, lossless]

 

Создавать темы 21-Фев-2015 06:09

-Mekkanika / California Dreaming-- Год издания: 2011
Страна: Испания
Жанр: Psytrance/Full On
Продолжительность: 01:13:13-Лейбл издания: United Beats Records
Страна-выпуска диска: USA
Номер по каталогу: UBCD002
Источник (релизер): CreamyG31337 (What.CD)-Формат: FLAC
Битрейт аудио: lossless
Тип рипа: tracks+.cue
Наличие сканов в содержимом раздачи: нет-

Трэклист

01. Mekkanikka - Delta9 [08:04]
02. Mekkanikka - In Spiral [07:57]
03. Mekkanikka vs. XSI - Nuts (Album Version) [07:14]
04. Mekkanikka vs. MadMaxx - Chemicals [08:01]
05. Mekkanikka - Brown Sugar [09:15]
06. Mekkanikka vs. Vibraddict - California Dream [06:48]
07. Mekkanikka vs. Audio Hijack - Always Ticking [07:53]
08. Peacemaker - Turn To Dust (Mekkanikka Remix) [08:32]
09. Mekkanikka - Silver Haze [09:30]

Лог создания рипа

Exact Audio Copy V1.0 beta 3 from 29. August 2011
EAC extraction logfile from 7. December 2011, 0:41
Mekkanikka / California Dreaming
Used drive : ATAPI iHAS124 B Adapter: 2 ID: 1
Read mode : Secure
Utilize accurate stream : Yes
Defeat audio cache : Yes
Make use of C2 pointers : No
Read offset correction : 6
Overread into Lead-In and Lead-Out : No
Fill up missing offset samples with silence : Yes
Delete leading and trailing silent blocks : No
Null samples used in CRC calculations : Yes
Used interface : Native Win32 interface for Win NT & 2000
Gap handling : Appended to previous track
Used output format : User Defined Encoder
Selected bitrate : 768 kBit/s
Quality : High
Add ID3 tag : No
Command line compressor : C:\Program Files (x86)\Exact Audio Copy\FLAC\FLAC.EXE
Additional command line options : -8 -V -T "ARTIST=%artist%" -T "TITLE=%title%" -T "ALBUM=%albumtitle%" -T "DATE=%year%" -T "TRACKNUMBER=%tracknr%" -T "GENRE=%genre%" -T "PERFORMER=%albuminterpret%" -T "COMPOSER=%composer%" %haslyrics%--tag-from-file=LYRICS="%lyricsfile%"%haslyrics% -T "ALBUMARTIST=%albumartist%" -T "DISCNUMBER=%cdnumber%" -T "TOTALDISCS=%totalcds%" -T "TOTALTRACKS=%numtracks%" -T "COMMENT=%comment%" %source% -o %dest%
TOC of the extracted CD
Track | Start | Length | Start sector | End sector
---------------------------------------------------------
1 | 0:00.00 | 8:04.17 | 0 | 36316
2 | 8:04.17 | 7:56.52 | 36317 | 72068
3 | 16:00.69 | 7:13.56 | 72069 | 104599
4 | 23:14.50 | 8:00.62 | 104600 | 140661
5 | 31:15.37 | 9:14.44 | 140662 | 182255
6 | 40:30.06 | 6:47.56 | 182256 | 212836
7 | 47:17.62 | 7:53.18 | 212837 | 248329
8 | 55:11.05 | 8:32.06 | 248330 | 286735
9 | 63:43.11 | 9:30.16 | 286736 | 329501
Track 1
Filename X:\Seeds\Mekkanikka - California Dreaming [2011-FLAC]\01 - Mekkanikka - Delta9.wav
Pre-gap length 0:00:02.00
Peak level 98.1 %
Extraction speed 3.4 X
Track quality 100.0 %
Test CRC A883D047
Copy CRC A883D047
Track not present in AccurateRip database
Copy OK
Track 2
Filename X:\Seeds\Mekkanikka - California Dreaming [2011-FLAC]\02 - Mekkanikka - In Spiral.wav
Peak level 98.1 %
Extraction speed 4.0 X
Track quality 100.0 %
Test CRC D87E143A
Copy CRC D87E143A
Track not present in AccurateRip database
Copy OK
Track 3
Filename X:\Seeds\Mekkanikka - California Dreaming [2011-FLAC]\03 - Mekkanikka vs. XSI - Nuts (Album Version).wav
Peak level 98.1 %
Extraction speed 4.1 X
Track quality 100.0 %
Test CRC 1F567862
Copy CRC 1F567862
Track not present in AccurateRip database
Copy OK
Track 4
Filename X:\Seeds\Mekkanikka - California Dreaming [2011-FLAC]\04 - Mekkanikka vs. MadMaxx - Chemicals.wav
Peak level 98.1 %
Extraction speed 4.5 X
Track quality 100.0 %
Test CRC 06878BCC
Copy CRC 06878BCC
Track not present in AccurateRip database
Copy OK
Track 5
Filename X:\Seeds\Mekkanikka - California Dreaming [2011-FLAC]\05 - Mekkanikka - Brown Sugar.wav
Peak level 98.1 %
Extraction speed 5.3 X
Track quality 100.0 %
Test CRC 3F3DA81D
Copy CRC 3F3DA81D
Track not present in AccurateRip database
Copy OK
Track 6
Filename X:\Seeds\Mekkanikka - California Dreaming [2011-FLAC]\06 - Mekkanikka vs. Vibraddict - California Dream.wav
Peak level 98.0 %
Extraction speed 5.1 X
Track quality 100.0 %
Test CRC 05908A74
Copy CRC 05908A74
Track not present in AccurateRip database
Copy OK
Track 7
Filename X:\Seeds\Mekkanikka - California Dreaming [2011-FLAC]\07 - Mekkanikka vs. Audio Hijack - Always Ticking.wav
Peak level 98.9 %
Extraction speed 5.5 X
Track quality 100.0 %
Test CRC 2CA8396E
Copy CRC 2CA8396E
Track not present in AccurateRip database
Copy OK
Track 8
Filename X:\Seeds\Mekkanikka - California Dreaming [2011-FLAC]\08 - Peacemaker - Turn To Dust (Mekkanikka Remix).wav
Peak level 98.1 %
Extraction speed 5.9 X
Track quality 100.0 %
Test CRC 619F22D0
Copy CRC 619F22D0
Track not present in AccurateRip database
Copy OK
Track 9
Filename X:\Seeds\Mekkanikka - California Dreaming [2011-FLAC]\09 - Mekkanikka - Silver Haze.wav
Peak level 98.0 %
Extraction speed 6.3 X
Track quality 100.0 %
Test CRC D74D8CAA
Copy CRC D74D8CAA
Track not present in AccurateRip database
Copy OK
None of the tracks are present in the AccurateRip database
No errors occurred
End of status report
---- CUETools DB Plugin V2.1.3
[CTDB TOCID: aeB5c4rbJUJ7fD1Ix1_d_vH3YUo-] disk not present in database, Submit result: aeB5c4rbJUJ7fD1Ix1_d_vH3YUo- has been uploaded
==== Log checksum C66862BD9E5C5270D6C30CB5763FCA219212D2CD4E7A896C530102885E71176E ====

Индексная карта (non-compilant .cue)

REM GENRE Psytrance
REM DATE 2011
REM DISCID 8C112909
REM COMMENT "ExactAudioCopy v1.0b3"
PERFORMER "Mekkanikka"
TITLE "California Dreaming"
FILE "01 - Mekkanikka - Delta9.wav" WAVE
TRACK 01 AUDIO
TITLE "Delta9"
PERFORMER "Mekkanikka"
INDEX 01 00:00:00
FILE "02 - Mekkanikka - In Spiral.wav" WAVE
TRACK 02 AUDIO
TITLE "In Spiral"
PERFORMER "Mekkanikka"
INDEX 01 00:00:00
FILE "03 - Mekkanikka vs. XSI - Nuts (Album Version).wav" WAVE
TRACK 03 AUDIO
TITLE "Nuts (Album Version)"
PERFORMER "Mekkanikka vs. XSI"
INDEX 01 00:00:00
FILE "04 - Mekkanikka vs. MadMaxx - Chemicals.wav" WAVE
TRACK 04 AUDIO
TITLE "Chemicals"
PERFORMER "Mekkanikka vs. MadMaxx"
INDEX 01 00:00:00
FILE "05 - Mekkanikka - Brown Sugar.wav" WAVE
TRACK 05 AUDIO
TITLE "Brown Sugar"
PERFORMER "Mekkanikka"
INDEX 01 00:00:00
FILE "06 - Mekkanikka vs. Vibraddict - California Dream.wav" WAVE
TRACK 06 AUDIO
TITLE "California Dream"
PERFORMER "Mekkanikka vs. Vibraddict"
INDEX 01 00:00:00
FILE "07 - Mekkanikka vs. Audio Hijack - Always Ticking.wav" WAVE
TRACK 07 AUDIO
TITLE "Always Ticking"
PERFORMER "Mekkanikka vs. Audio Hijack"
INDEX 01 00:00:00
FILE "08 - Peacemaker - Turn To Dust (Mekkanikka Remix).wav" WAVE
TRACK 08 AUDIO
TITLE "Turn To Dust (Mekkanikka Remix)"
PERFORMER "Peacemaker"
INDEX 01 00:00:00
FILE "09 - Mekkanikka - Silver Haze.wav" WAVE
TRACK 09 AUDIO
TITLE "Silver Haze"
PERFORMER "Mekkanikka"
INDEX 01 00:00:00

Лог Audiochecker

-----------------------
DON'T MODIFY THIS FILE
-----------------------
PERFORMER: auCDtect Task Manager, ver. 1.5.1RC4 build 1.5.1.5
Copyright (c) 2008-2010 y-soft. All rights reserved
http://y-soft.org
ANALYZER: auCDtect: CD records authenticity detector, version 0.8.2
Copyright (c) 2004 Oleg Berngardt. All rights reserved.
Copyright (c) 2004 Alexander Djourik. All rights reserved.
FILE: 09 - Mekkanikka - Silver Haze.flac
Size: 60878910 Hash: B15F93471DF63D1ABF32ECF3C275E8B2 Accuracy: -m0
Conclusion: MPEG 95%
Signature: 0B77286A5448DB9A84197A486C0F72C796BF356B
FILE: 08 - Peacemaker - Turn To Dust (Mekkanikka Remix).flac
Size: 56680789 Hash: 2451247A8E395FF68EBEC67B739D2BCF Accuracy: -m0
Conclusion: CDDA 100%
Signature: 85EB527A23EE3AE3E2E125F36A273DE92BA49901
FILE: 07 - Mekkanikka vs. Audio Hijack - Always Ticking.flac
Size: 49239989 Hash: CAE67D275DFEBB8A1BF348AA339C2464 Accuracy: -m0
Conclusion: CDDA 100%
Signature: 88B0785CA677229293DB7BBD74400DE608D7B522
FILE: 06 - Mekkanikka vs. Vibraddict - California Dream.flac
Size: 50029149 Hash: F9776DAB8F23C73788A69CCB2CF276DD Accuracy: -m0
Conclusion: CDDA 100%
Signature: 145798ACB1D8B331861B1FB4DAD013F705B49B9E
FILE: 05 - Mekkanikka - Brown Sugar.flac
Size: 59066714 Hash: 42D81F3B11AE244C7002511D988E36E0 Accuracy: -m0
Conclusion: CDDA 100%
Signature: 13E30F517247BDCB8AFECC6BB6D4A7DEEE2D9194
FILE: 04 - Mekkanikka vs. MadMaxx - Chemicals.flac
Size: 57201497 Hash: 35C5E9244FB07C73045B45836318ED9B Accuracy: -m0
Conclusion: CDDA 100%
Signature: 7373BA60C7049B8EADB0D6B4734C921F55AC2B8B
FILE: 03 - Mekkanikka vs. XSI - Nuts (Album Version).flac
Size: 53751654 Hash: 51A05CDD2F25C40B61333C90213EFDD5 Accuracy: -m0
Conclusion: CDDA 100%
Signature: E9910A2D784DA0230C213EB5175ADBAC691D016A
FILE: 02 - Mekkanikka - In Spiral.flac
Size: 49479130 Hash: DD8846F2BD2239D866B0D2677C29DA63 Accuracy: -m0
Conclusion: CDDA 100%
Signature: 15459B09B9D1B11E1F8A6267871D389DE8970D34
FILE: 01 - Mekkanikka - Delta9.flac
Size: 56017336 Hash: E57F87EB14C32B426BE077BB6CE123AF Accuracy: -m0
Conclusion: CDDA 100%
Signature: A3B5C317E3116D0B023FDADEE82DBE23090F016F

Скриншот спектра частот

-Приятного прослушивания!
Рейтинг@Mail.ru