[ Сегодня на трекере фрилич! Идет свободное скачивание без начисления Download ]

Женщина в черном 2: Ангел смерти / The Woman in Black 2: Angel of Death (Том Харпер / Tom Harper) [2014 г., ужасы, триллер, драма, HDRip] Dub (Чистый звук)

 

Создавать темы 21-Фев-2015 06:04

-Женщина в черном 2: Ангел смерти / The Woman in Black 2: Angel of Death-«Она не простила. Она не забыла. Она никогда не уходила»- Производство: Великобритания, Канада
Год выпуска: 2014 г.
Жанр: ужасы, триллер, драма
Продолжительность: 01:34:08
Мировая премьера: 30 декабря 2014
Российская премьера: 15 января 2015, «Наше Кино»
Перевод: Профессиональный (полное дублирование) [Чистый звук]-Режиссер: Том Харпер / Tom Harper
В ролях: Хелен МакКрори, Фиби Фокс, Джереми Ирвин, Нед Деннехи, Адриан Роулинз, Лиэнн Бест, Амелия Пиджеон-Описание: Во время Второй мировой войны группу школьников и их юную учительницу Еву эвакуируют из подвергшегося бомбардировкам Лондона в заброшенное поместье, расположенное в деревенской глуши. Вскоре в деревне начинают происходить странные события. Ева с помощью начальника местного гарнизона Гарри обнаруживает, что приезд детей пробудил темные силы, внушающие больший ужас, чем вражеские бомбардировки. Теперь Ева должна противостоять силам зла, спасти детей и пережить встречу с Женщиной в черном.- -Качество видео: HDRip
Контейнер: AVI
Видео кодек: XviD
Аудио кодек: AC3
Видео: 720x400 (1.80:1), 25 fps, XviD build 50 ~1870 kbps avg, 0.26 bit/pixel
Аудио: 48 kHz, AC3 Dolby Digital, 2/0 (L,R) ch, ~192 kbps
Cубтитры: отсутствуют

Media Info

General
Complete name : D:\The.Woman.in.Black.2.avi
Format : AVI
Format/Info : Audio Video Interleave
File size : 1.36 GiB
Duration : 1h 34mn
Overall bit rate : 2 073 Kbps
Writing application : VirtualDubMod 1.5.10.3 | www.virtualdub-fr.org || (build 2550/release)
Video
ID : 0
Format : MPEG-4 Visual
Format profile : Advanced [email protected]
Format settings, BVOP : 2
Format settings, QPel : No
Format settings, GMC : No warppoints
Format settings, Matrix : Custom
Codec ID : XVID
Codec ID/Hint : XviD
Duration : 1h 34mn
Bit rate : 1 871 Kbps
Width : 720 pixels
Height : 400 pixels
Display aspect ratio : 16:9
Frame rate : 25.000 fps
Color space : YUV
Chroma subsampling : 4:2:0
Bit depth : 8 bits
Scan type : Progressive
Compression mode : Lossy
Bits/(Pixel*Frame) : 0.260
Stream size : 1.23 GiB (90%)
Writing library : XviD 1.2.1 (UTC 2008-12-04)
Audio
ID : 1
Format : AC-3
Format/Info : Audio Coding 3
Mode extension : CM (complete main)
Format settings, Endianness : Big
Codec ID : 2000
Duration : 1h 34mn
Bit rate mode : Constant
Bit rate : 192 Kbps
Channel(s) : 2 channels
Channel positions : Front: L R
Sampling rate : 48.0 KHz
Bit depth : 16 bits
Compression mode : Lossy
Stream size : 129 MiB (9%)
Alignment : Split accross interleaves
Interleave, duration : 40 ms (1.00 video frame)
Interleave, preload duratio : 500 ms

Скриншоты

Яндекс.Метрика
Рейтинг@Mail.ru