(Classical, Jazz, Chillout) Blank & Jones - Relax Jazzed 2 (by Marcus Loeber) - 2014 [FLAC, tracks+.cue, Lossless]

 

Создавать темы 21-Фев-2015 05:59

-Blank & Jones - Relax Jazzed 2 (by Marcus Loeber)--
Год издания: 2014
Страна: Germany
Лейбл: Soundcolours
Жанр: Classical, Jazz, Chillout
Продолжительность: 01:11:02
Номер по каталогу: SC 0138
Формат: FLAC
Битрейт аудио: Lossless
Тип рипа: tracks+.cue
Наличие сканов в содержимом раздачи: да-Трэклист:
01. Lullaby (Les Yeux Fermes) (jazzed) 05:57
02. Balearic Blue (jazzed) 05:20
03. Sunny Side Up (jazzed) 05:01
04. Le Grand Bleu (jazzed) 05:18
05. Feel Good (jazzed) 05:40
06. After Love (jazzed) 03:53
07. Breezin' (jazzed) 06:21
08. Warm Weather (jazzed) 05:40
09. Beyond Time (jazzed) 05:20
10. J'En Reste La (jazzed) 04:47
11. From N'Ney With Love (jazzed) 05:51
12. Entspannt am Strand (jazzed) 04:59
13. Unknown Treasure (jazzed) 06:54
-

Лог создания рипа

Exact Audio Copy V1.0 beta 3 from 29. August 2011
EAC extraction logfile from 18. January 2015, 16:50
Blank & Jones / Relax Jazzed 2: by Marcus Loeber
Used drive  : PIONEER BD-RW   BDR-S09   Adapter: 1  ID: 0
Read mode               : Secure
Utilize accurate stream : Yes
Defeat audio cache      : Yes
Make use of C2 pointers : No
Read offset correction                      : 667
Overread into Lead-In and Lead-Out          : No
Fill up missing offset samples with silence : Yes
Delete leading and trailing silent blocks   : No
Null samples used in CRC calculations       : Yes
Used interface                              : Native Win32 interface for Win NT & 2000
Gap handling                                : Appended to previous track
Used output format              : User Defined Encoder
Selected bitrate                : 1024 kBit/s
Quality                         : High
Add ID3 tag                     : No
Command line compressor         : C:\Program Files (x86)\Exact Audio Copy\Flac\flac.exe
Additional command line options : -8 -V -T "COMMENT=ripped by DrStandBy special for new-team.org" -T "ARTIST=%artist%" -T "TITLE=%title%" -T "ALBUM=%albumtitle%" -T "DATE=%year%" -T "TRACKNUMBER=%tracknr%" -T "GENRE=%genre%" %source%
TOC of the extracted CD
Track |   Start  |  Length  | Start sector | End sector
---------------------------------------------------------
1  |  0:00.00 |  5:56.69 |         0    |    26768
2  |  5:56.69 |  5:19.41 |     26769    |    50734
3  | 11:16.35 |  5:00.64 |     50735    |    73298
4  | 16:17.24 |  5:18.03 |     73299    |    97151
5  | 21:35.27 |  5:40.26 |     97152    |   122677
6  | 27:15.53 |  3:53.05 |    122678    |   140157
7  | 31:08.58 |  6:21.05 |    140158    |   168737
8  | 37:29.63 |  5:40.24 |    168738    |   194261
9  | 43:10.12 |  5:20.20 |    194262    |   218281
10  | 48:30.32 |  4:46.63 |    218282    |   239794
11  | 53:17.20 |  5:51.19 |    239795    |   266138
12  | 59:08.39 |  4:58.57 |    266139    |   288545
13  | 64:07.21 |  6:53.53 |    288546    |   319573
Track  1
Filename G:\Blank & Jones\Album\2014 - Relax Jazzed 2- by Marcus Loeber (SC 0138)\01. Blank & Jones - Lullaby (Les Yeux Fermes).wav
Pre-gap length  0:00:02.00
Peak level 94.4 %
Extraction speed 5.0 X
Track quality 99.9 %
Test CRC B280DCC2
Copy CRC B280DCC2
Track not present in AccurateRip database
Copy OK
Track  2
Filename G:\Blank & Jones\Album\2014 - Relax Jazzed 2- by Marcus Loeber (SC 0138)\02. Blank & Jones - Balearic Blue.wav
Pre-gap length  0:00:05.65
Peak level 94.4 %
Extraction speed 6.0 X
Track quality 100.0 %
Test CRC 75B21D47
Copy CRC 75B21D47
Track not present in AccurateRip database
Copy OK
Track  3
Filename G:\Blank & Jones\Album\2014 - Relax Jazzed 2- by Marcus Loeber (SC 0138)\03. Blank & Jones - Sunny Side Up.wav
Pre-gap length  0:00:06.66
Peak level 94.4 %
Extraction speed 6.5 X
Track quality 100.0 %
Test CRC 0EE16EFE
Copy CRC 0EE16EFE
Track not present in AccurateRip database
Copy OK
Track  4
Filename G:\Blank & Jones\Album\2014 - Relax Jazzed 2- by Marcus Loeber (SC 0138)\04. Blank & Jones - Le Grand Bleu.wav
Pre-gap length  0:00:05.62
Peak level 94.4 %
Extraction speed 6.4 X
Track quality 99.9 %
Test CRC 613B23CF
Copy CRC 613B23CF
Track not present in AccurateRip database
Copy OK
Track  5
Filename G:\Blank & Jones\Album\2014 - Relax Jazzed 2- by Marcus Loeber (SC 0138)\05. Blank & Jones - Feel Good.wav
Pre-gap length  0:00:01.37
Peak level 94.4 %
Extraction speed 7.5 X
Track quality 100.0 %
Test CRC EE6C857F
Copy CRC EE6C857F
Track not present in AccurateRip database
Copy OK
Track  6
Filename G:\Blank & Jones\Album\2014 - Relax Jazzed 2- by Marcus Loeber (SC 0138)\06. Blank & Jones - After Love.wav
Pre-gap length  0:00:04.38
Peak level 94.4 %
Extraction speed 6.6 X
Track quality 99.9 %
Test CRC 0034B09D
Copy CRC 0034B09D
Track not present in AccurateRip database
Copy OK
Track  7
Filename G:\Blank & Jones\Album\2014 - Relax Jazzed 2- by Marcus Loeber (SC 0138)\07. Blank & Jones - Breezin'.wav
Pre-gap length  0:00:05.28
Peak level 94.4 %
Extraction speed 8.2 X
Track quality 100.0 %
Test CRC B5881EC5
Copy CRC B5881EC5
Track not present in AccurateRip database
Copy OK
Track  8
Filename G:\Blank & Jones\Album\2014 - Relax Jazzed 2- by Marcus Loeber (SC 0138)\08. Blank & Jones - Warm Weather.wav
Pre-gap length  0:00:05.10
Peak level 94.4 %
Extraction speed 8.4 X
Track quality 100.0 %
Test CRC 2ED01B09
Copy CRC 2ED01B09
Track not present in AccurateRip database
Copy OK
Track  9
Filename G:\Blank & Jones\Album\2014 - Relax Jazzed 2- by Marcus Loeber (SC 0138)\09. Blank & Jones - Beyond Time.wav
Pre-gap length  0:00:05.67
Peak level 94.4 %
Extraction speed 8.8 X
Track quality 100.0 %
Test CRC 431B303E
Copy CRC 431B303E
Track not present in AccurateRip database
Copy OK
Track 10
Filename G:\Blank & Jones\Album\2014 - Relax Jazzed 2- by Marcus Loeber (SC 0138)\10. Blank & Jones - J'en Reste La.wav
Pre-gap length  0:00:05.01
Peak level 94.4 %
Extraction speed 8.0 X
Track quality 99.9 %
Test CRC 49F50A2C
Copy CRC 49F50A2C
Track not present in AccurateRip database
Copy OK
Track 11
Filename G:\Blank & Jones\Album\2014 - Relax Jazzed 2- by Marcus Loeber (SC 0138)\11. Blank & Jones - From N'ney with Love.wav
Pre-gap length  0:00:05.46
Peak level 82.2 %
Extraction speed 8.6 X
Track quality 99.9 %
Test CRC 91DE07E6
Copy CRC 91DE07E6
Track not present in AccurateRip database
Copy OK
Track 12
Filename G:\Blank & Jones\Album\2014 - Relax Jazzed 2- by Marcus Loeber (SC 0138)\12. Blank & Jones - Entspannt am Strand.wav
Pre-gap length  0:00:05.55
Peak level 94.4 %
Extraction speed 9.6 X
Track quality 100.0 %
Test CRC 0EAC7444
Copy CRC 0EAC7444
Track not present in AccurateRip database
Copy OK
Track 13
Filename G:\Blank & Jones\Album\2014 - Relax Jazzed 2- by Marcus Loeber (SC 0138)\13. Blank & Jones - Unknown Treasure.wav
Pre-gap length  0:00:06.03
Peak level 94.4 %
Extraction speed 9.4 X
Track quality 99.9 %
Test CRC 5FB94E12
Copy CRC 5FB94E12
Track not present in AccurateRip database
Copy OK
None of the tracks are present in the AccurateRip database
No errors occurred
End of status report
---- CUETools DB Plugin V2.1.4
[CTDB TOCID: BFGy37SXGPPWZHsVus0S2g48mK4-] found
Submit result: BFGy37SXGPPWZHsVus0S2g48mK4- has been confirmed
Track | CTDB Status
1   | (2/2) Accurately ripped
2   | (2/2) Accurately ripped
3   | (2/2) Accurately ripped
4   | (2/2) Accurately ripped
5   | (2/2) Accurately ripped
6   | (2/2) Accurately ripped
7   | (2/2) Accurately ripped
8   | (2/2) Accurately ripped
9   | (2/2) Accurately ripped
10   | (2/2) Accurately ripped
11   | (2/2) Accurately ripped
12   | (2/2) Accurately ripped
13   | (2/2) Accurately ripped
==== Log checksum 9B571CA9B5F85D920F4594047B773F0CBC017A98082EB9E599AECB7450772593 ====

Индексная карта (non-compilant .cue)

REM GENRE "Downtempo, Smooth Jazz"
REM DATE 2014
REM DISCID D910A40D
REM COMMENT "ExactAudioCopy v1.0b3"
CATALOG 0814281010418
PERFORMER "Blank & Jones"
TITLE "Relax Jazzed 2: by Marcus Loeber"
FILE "01. Blank & Jones - Lullaby (Les Yeux Fermes).wav" WAVE
TRACK 01 AUDIO
TITLE "Lullaby (Les Yeux Fermes)"
PERFORMER "Blank & Jones"
ISRC DEGE91400096
INDEX 01 00:00:00
TRACK 02 AUDIO
TITLE "Balearic Blue"
PERFORMER "Blank & Jones"
ISRC DEGE91400097
INDEX 00 05:51:04
FILE "02. Blank & Jones - Balearic Blue.wav" WAVE
INDEX 01 00:00:00
TRACK 03 AUDIO
TITLE "Sunny Side Up"
PERFORMER "Blank & Jones"
ISRC DEGE91400098
INDEX 00 05:12:50
FILE "03. Blank & Jones - Sunny Side Up.wav" WAVE
INDEX 01 00:00:00
TRACK 04 AUDIO
TITLE "Le Grand Bleu"
PERFORMER "Blank & Jones"
ISRC DEGE91400099
INDEX 00 04:55:02
FILE "04. Blank & Jones - Le Grand Bleu.wav" WAVE
INDEX 01 00:00:00
TRACK 05 AUDIO
TITLE "Feel Good"
PERFORMER "Blank & Jones"
ISRC DEGE91400100
INDEX 00 05:16:41
FILE "05. Blank & Jones - Feel Good.wav" WAVE
INDEX 01 00:00:00
TRACK 06 AUDIO
TITLE "After Love"
PERFORMER "Blank & Jones"
ISRC DEGE91400101
INDEX 00 05:35:63
FILE "06. Blank & Jones - After Love.wav" WAVE
INDEX 01 00:00:00
TRACK 07 AUDIO
TITLE "Breezin'"
PERFORMER "Blank & Jones"
ISRC DEGE91400102
INDEX 00 03:47:52
FILE "07. Blank & Jones - Breezin'.wav" WAVE
INDEX 01 00:00:00
TRACK 08 AUDIO
TITLE "Warm Weather"
PERFORMER "Blank & Jones"
ISRC DEGE91400103
INDEX 00 06:15:70
FILE "08. Blank & Jones - Warm Weather.wav" WAVE
INDEX 01 00:00:00
TRACK 09 AUDIO
TITLE "Beyond Time"
PERFORMER "Blank & Jones"
ISRC DEGE91400104
INDEX 00 05:34:32
FILE "09. Blank & Jones - Beyond Time.wav" WAVE
INDEX 01 00:00:00
TRACK 10 AUDIO
TITLE "J'en Reste La"
PERFORMER "Blank & Jones"
ISRC DEGE91400105
INDEX 00 05:15:19
FILE "10. Blank & Jones - J'en Reste La.wav" WAVE
INDEX 01 00:00:00
TRACK 11 AUDIO
TITLE "From N'ney with Love"
PERFORMER "Blank & Jones"
ISRC DEGE91400106
INDEX 00 04:41:17
FILE "11. Blank & Jones - From N'ney with Love.wav" WAVE
INDEX 01 00:00:00
TRACK 12 AUDIO
TITLE "Entspannt am Strand"
PERFORMER "Blank & Jones"
ISRC DEGE91400107
INDEX 00 05:45:39
FILE "12. Blank & Jones - Entspannt am Strand.wav" WAVE
INDEX 01 00:00:00
TRACK 13 AUDIO
TITLE "Unknown Treasure"
PERFORMER "Blank & Jones"
ISRC DEGE91400108
INDEX 00 04:52:54
FILE "13. Blank & Jones - Unknown Treasure.wav" WAVE
INDEX 01 00:00:00
-
Яндекс.Метрика
Рейтинг@Mail.ru