Чудеса / Ji ji (Джеки Чан / Jackie Chan) [1989 г., Боевик, драма, комедия, криминал, BDRip, 720p] AVO (Немахов, Визгунов) + Original (Chi)

 

Создавать темы 21-Фев-2015 05:40

Чудеса / Ji ji
Год выпуска: 1989
Производство: Гонконг
Жанр: Боевик, драма, комедия, криминал
Продолжительность: 02:07:12
Перевод: Авторский (одноголосый, закадровый) Юрий Немахов, Сергей Визгунов
Оригинальный аудиопоток: китайский
Субтитры: отсутствуют
Режиссер: Джеки Чан / Jackie Chan
В ролях: Джеки Чан, Анита Муи, Ах Леи Гуа, Чун Хсианг Ко, Ма У, Билл Тун, Кенни Би, Энтони Карпио, Энтони Чан, Чинг-Ван Чан
Описание: В поисках лучшей жизни и без гроша в кармане Чарли приезжает в Гонконг. Свои последние центы он отдает бедной торговке за цветок розы, который должен принести ему удачу. И «счастливый» случай не заставил себя ждать. Чарли становится невольным участником перестрелки двух мафиозных кланов и выносит из-под огня главного босса одной из гангстерских группировок.
Умирая, главарь мафии назначает Чарли своим наследником и Большим Братом своего клана. В роли «крестного отца» доброй половины криминального Гонконга Чарли приходится проявлять чудеса ловкости и изобретательности…
, КиноПоиск
Качество видео: BDRip
Контейнер: MKV
Стандарт разрешения: 720p
Видео кодек: H.264
Аудио кодек: AC3
Видео: 1280x540, 3263 Kbps, 23.976 кадр/с, 0.197 bt/px
Аудио #1: AC-3, 384 Kbps, 6 ch, 48.0 KHz Rus Немахов
Аудио #2: AC-3, 448 Kbps, 6 ch, 48.0 KHz Rus Визгунов
Аудио #3: AC-3, 640 Kbps, 6 ch, 48.0 KHz Chi Original

Media Info

J:\ЧУДЕСА.mkv
General
Unique ID : 238868704330607374374638451170140758098 (0xB3B470653C43DCC7B75D0E6A7B842052)
Complete name : J:\ЧУДЕСА.mkv
Format : Matroska
Format version : Version 1
File size : 4.29 GiB
Duration : 2h 7mn
Overall bit rate : 4 831 Kbps
Encoded date : UTC 2015-02-18 18:35:36
Writing application : mkvmerge v2.5.3 ('Boogie') built on Mar 7 2009 15:00:41
Writing library : libebml v0.7.7 + libmatroska v0.8.1
Video #1
ID : 1
Format : AVC
Format/Info : Advanced Video Codec
Format profile : [email protected]
Format settings, CABAC : Yes
Format settings, ReFrames : 10 frames
Codec ID : V_MPEG4/ISO/AVC
Duration : 2h 7mn
Bit rate : 3 263 Kbps
Width : 1 280 pixels
Height : 540 pixels
Display aspect ratio : 2.40:1
Frame rate mode : Constant
Frame rate : 23.976 fps
Color space : YUV
Chroma subsampling : 4:2:0
Bit depth : 8 bits
Scan type : Progressive
Bits/(Pixel*Frame) : 0.197
Stream size : 2.90 GiB (68%)
Writing library : x264 core 130 r2273 b3065e6
Encoding settings : cabac=1 / ref=10 / deblock=1:-3:-3 / analyse=0x3:0x133 / me=umh / subme=11 / psy=1 / psy_rd=1.00:0.15 / mixed_ref=1 / me_range=32 / chroma_me=1 / trellis=2 / 8x8dct=1 / cqm=0 / deadzone=21,11 / fast_pskip=1 / chroma_qp_offset=-3 / threads=6 / lookahead_threads=1 / sliced_threads=0 / nr=0 / decimate=1 / interlaced=0 / bluray_compat=0 / constrained_intra=0 / bframes=7 / b_pyramid=2 / b_adapt=2 / b_bias=0 / direct=1 / weightb=1 / open_gop=0 / weightp=2 / keyint=250 / keyint_min=23 / scenecut=40 / intra_refresh=0 / rc=crf / mbtree=0 / crf=18.6 / qcomp=0.60 / qpmin=0 / qpmax=51 / qpstep=4 / ip_ratio=1.40 / pb_ratio=1.30 / aq=1:1.00
Language : Chinese
Default : Yes
Forced : No
Audio #2
ID : 2
Format : AC-3
Format/Info : Audio Coding 3
Mode extension : CM (complete main)
Format settings, Endianness : Big
Codec ID : A_AC3
Duration : 2h 7mn
Bit rate mode : Constant
Bit rate : 384 Kbps
Channel(s) : 6 channels
Channel positions : Front: L C R, Side: L R, LFE
Sampling rate : 48.0 KHz
Bit depth : 16 bits
Compression mode : Lossy
Stream size : 349 MiB (8%)
Title : AVO Немахов
Language : Russian
Default : Yes
Forced : No
Audio #3
ID : 3
Format : AC-3
Format/Info : Audio Coding 3
Mode extension : CM (complete main)
Format settings, Endianness : Big
Codec ID : A_AC3
Duration : 2h 7mn
Bit rate mode : Constant
Bit rate : 448 Kbps
Channel(s) : 6 channels
Channel positions : Front: L C R, Side: L R, LFE
Sampling rate : 48.0 KHz
Bit depth : 16 bits
Compression mode : Lossy
Stream size : 408 MiB (9%)
Title : AVO Визгунов
Language : Russian
Default : No
Forced : No
Audio #4
ID : 4
Format : AC-3
Format/Info : Audio Coding 3
Mode extension : CM (complete main)
Format settings, Endianness : Big
Codec ID : A_AC3
Duration : 2h 7mn
Bit rate mode : Constant
Bit rate : 640 Kbps
Channel(s) : 6 channels
Channel positions : Front: L C R, Side: L R, LFE
Sampling rate : 48.0 KHz
Bit depth : 16 bits
Compression mode : Lossy
Stream size : 582 MiB (13%)
Language : Chinese
Default : No
Forced : No

log x.264

x264 [info]: frame I:1988  Avg QP:18.78  size: 65180
x264 [info]: frame P:38122 Avg QP:19.83 size: 32090
x264 [info]: frame B:142728 Avg QP:21.79 size: 12956
x264 [info]: consecutive B-frames: 1.8% 1.3% 5.3% 24.9% 20.3% 36.9% 7.0% 2.6%
x264 [info]: mb I I16..4: 1.6% 88.9% 9.5%
x264 [info]: mb P I16..4: 0.2% 18.7% 1.2% P16..4: 30.7% 35.1% 11.3% 0.8% 0.0% skip: 2.0%
x264 [info]: mb B I16..4: 0.0% 2.3% 0.2% B16..8: 38.4% 25.6% 3.8% direct: 6.2% skip:23.5% L0:43.9% L1:42.8% BI:13.3%
x264 [info]: 8x8 transform intra:92.0% inter:65.1%
x264 [info]: coded y,uvDC,uvAC intra: 96.9% 78.9% 42.5% inter: 34.1% 19.2% 0.7%
x264 [info]: i16 v,h,dc,p: 35% 12% 2% 51%
x264 [info]: i8 v,h,dc,ddl,ddr,vr,hd,vl,hu: 11% 7% 4% 9% 14% 16% 13% 14% 12%
x264 [info]: i4 v,h,dc,ddl,ddr,vr,hd,vl,hu: 13% 6% 1% 8% 17% 18% 14% 12% 10%
x264 [info]: i8c dc,h,v,p: 33% 25% 22% 19%
x264 [info]: Weighted P-Frames: Y:9.2% UV:3.0%
x264 [info]: ref P L0: 39.9% 12.8% 19.8% 6.6% 6.2% 4.0% 4.1% 2.1% 2.3% 1.9% 0.2% 0.0%
x264 [info]: ref B L0: 71.0% 12.9% 6.0% 3.3% 2.3% 2.0% 1.5% 0.7% 0.3%
x264 [info]: ref B L1: 92.9% 7.1%
x264 [info]: kb/s:3359.17
x264 [total]: encoded 182838 frames, 4.82 fps, 3359.17 kb/s

Скриншоты

Яндекс.Метрика
Рейтинг@Mail.ru