[ Сегодня на трекере фрилич! Идет свободное скачивание без начисления Download ]

(Folk Rock, Retro) Ариэль - Золотая коллекция (4CD) - 2001, [FLAC (image + .cue), lossless]

 

Создавать темы 19-Фев-2015 21:10

-Ариэль - Золотая коллекция (4CD)
Год издания: 2001
Страна: СССР - Россия
Жанр: Folk Rock, Retro
Продолжительность: 04:51:00-Лейбл издания: Уралтон
Тип альбома: Compilation
Страна-выпуска диска: Россия
Номер по каталогу: URCD - 006/009
Формат: FLAC
Битрейт аудио: lossless
Тип рипа: tracks+.cue
Наличие сканов в содержимом раздачи: да

4 CD

CD 1 | 01:14:10

01. Зимы и вёсны (Музыка и слова В. Ярушина) (03:08)
02. Маленькая история (Музыка и слова В. Ярушина) (02:50)
03. Обращение к России (Музыка и слова В. Ярушина) (05:08)
04. Орган в ночи (Р. Паулс - Д. Авотыня , перевод Л. Азаровой) (05:31)
05. Песенка в старинном стиле (Музыка и слова С. Шарикова) (02:13)
06. Тишина (Музыка и слова Л. Гурова) (05:19)
07. Старая пластинка (Н. Богословский - Я. Родионов) (03:17)
08. Где ждёт любовь (Музыка и слова А. Богословского) (03:56)
09. Парафраз на тему русской народной песни 'Отдавали молоду' (В. Ярушин) (08:19)
10. Здравствуй , мама ! (Д. Тухманов - Р. Рождественский) (03:32)
11. Поэма о солнечном городе (Музыка и слова В. Ярушина) (07:01)
12. За окном весна (Музыка и слова Л. Гурова) (02:54)
13. Не ищи меня (С. Краевский - Л. Гуров) (03:06)
14. Водонос (Г. Фрейденфельд - В. Ярушин) (03:35)
15. Одиночество (Р. Паулс - Д. Авотыня , перевод Л. Азаровой) (06:15)
16. Колокола (Р. Паулс - Д. Авотыня , перевод Л. Азаровой) (03:37)
17. Уходишь ты (А. Зацепин - Л. Дербенёв) (04:38)

CD 2 | 01:12:56

01. Народное гуляние (В. Ярушин - А. Раскин) (07:04)
02. Алёнушка (Музыка и слова Р. Геппа) (04:04)
03. Скоморошина (В. Ярушин - А. Раскин) (07:17)
04. Частушки (А. Румянцев - Слова народные) (03:14)
05. Отставала лебёдушка (Русская народная песня , обработка В. Ярушина) (04:46)
06. Я на камушке сижу (Русская народная песня , обработка В. Ярушина) (03:13)
07. По блюду , блюду серебряному (Русская народная песня , обработка В. Ярушина) (02:34)
08. Как по реченьке гоголюшка плывёт (Русская народная песня , обработка В. Ярушина) (04:07)
09. Отчего же наша сваха (Русская народная песня , обработка В. Ярушина) (03:25)
10. По полю , полю (Русская народная песня , обработка В. Ярушина) (02:21)
11. Расскажу тебе , кума (Русская народная песня , обработка В. Ярушина) (03:56)
12. В амбар , за мукой (Русская народная песня , обработка В. Ярушина) (02:15)
13. Степь да степь кругом (Русская народная песня , обработка В. Ярушина) (05:15)
14. Уж вы стары - старики (В. Ярушин - слова народные) (02:52)
15. Пчёлочка златая (Русская народная песня , обработка В. Ярушина) (02:01)
16. Дубравушка (В. Ярушин - слова народные) (04:26)
17. Всё небо тучами покрыто (Русская народная песня , обработка В. Ярушина) (04:07)
18. Уж ты , ночка (В. Ярушин - слова народные) (03:14)
19. Вечор , вечор , матушка (Русская народная песня , обработка В. Ярушина) (02:52)

CD 3 | 01:16:05

01. На острове Буяне (А. Морозов - Л. Дербенёв) (03:53)
02. На горе , на горенке (Русская народная песня , обработка В. Ярушина) (05:17)
03. Нахлебался пресного молока (Русская народная песня , обработка В. Ярушина) (02:31)
04. Баба Яга (Т. Ефимов - Ю. Мажаров) (02:41)
05. Танюша (Ю. Мелехов - С. Есенин) (04:28)
06. Блоха (Русская народная песня , обработка В. Ярушина) (03:56)
07. Лесной дуэт (Баба Яга - 2) (В. Ярушин - О. Жуков) (03:42)
08. На улице дождик (Русская народная песня , обработка В. Ярушина) (06:20)
09. Ой да головушка моя болела (Русская народная песня , обработка В. Ярушина) (03:22)
10. Баба Яга - 3 (Т. Ефимов - В. Успенский , А. Курляндский) (02:59)
11. Долина - долинушка (Русская народная песня , обработка В. Ярушина) (04:51)
12. Ты могла (В. Ярушин - А. Костерев) (03:33)
13. Четыре бочки (В. Ярушин - С. Кутанин) (05:42)
14. Истина (В. Ярушин - А. Костерев) (04:19)
15. Я лицо твоё не помню (В. Малежик - В. Попков) (02:26)
16. Всё равно тебя люблю я (Т. Ефимов - Д. Усманов) (04:24)
17. Сладкая планета (С. Шариков - С. Кутанин) (03:08)
18. Волки гонят оленя (А. Зацепин - Л. Дербенёв) (04:56)
19. Уж ты , Порушка - Параня (Русская народная песня , обработка В. Ярушина) (03:46)

CD 4 | 01:07:50

01. В краю магнолий (А. Морозов - Ю. Марцинкевич) (03:28)
02. Шире круг (Р. Паулс - И. Резник) (04:39)
03. Храни меня , дождь (Р. Гепп - А. Залесский) (04:24)
04. Каждый день - твой (А. Морозов - Л. Дербенёв) (03:35)
05. Комната смеха (Т. Ефимов - Д. Усманов) (03:50)
06. Благодарствуйте , сударыня (Т. Ефимов - В. Солоухин) (04:05)
07. Захотелось быть (Т. Ефимов - В. Солоухин) (03:59)
08. Ты - музыка (С. Шариков - С. Кутанин) (03:26)
09. У моей зазнобы (Музыка и слова Ю. Лозы) (03:25)
10. Не запирай дверей (Ю. Лоза - В. Нуров) (04:19)
11. Дела (Ю. Лоза - Б. Шифрин) (03:50)
12. Заповедные места (Ю. Лоза - А. Жигарев) (03:46)
13. Детские глаза (Ю. Лоза - Ю. Гуреев) (03:20)
14. Вечерний разговор (Ю. Лоза - А. Дидуров) (03:21)
15. Елена (В. Ярушин - Г. Суздалев) (02:59)
16. Ненавижу (В. Ярушин - О. Горьков , В. Пикалин) (03:43)
17. Исповедь (В. Ярушин - А. Афанасенко) (03:28)
18. Южный Урал (В. Ярушин - В. Колтунов) (04:22)

лог создания рипа

CD 1

Exact Audio Copy V0.99 prebeta 3 from 28. July 2007
Отчёт EAC об извлечении, выполненном 17. февраля 2010, 19:00
ВИА «АРИЭЛЬ» / "ЗОЛОТАЯ КОЛЛЕКЦИЯ"  CD01
Дисковод: Optiarc DVD RW AD-7190A   Adapter: 0  ID: 0
Режим чтения                 : Достоверность
Использование точного потока : Да
Отключение кэша аудио        : Да
Использование указателей C2  : Нет
Коррекция смещения при чтении                     : 6
Способность читать области Lead-in и Lead-out     : Нет
Заполнение пропущенных сэмплов тишиной            : Да
Удаление блоков с тишиной в начале и конце        : Нет
При вычислениях CRC использовались нулевые сэмплы : Да
Интерфейс                                         : Встроенный Win32-интерфейс для Win NT/2000
Выходной формат : Внутренние WAV-операции
Формат сэмплов  : 44.100 Гц; 16 бит; стерео
TOC извлечённого CD
Трек |   Старт  | Длительность | Начальный сектор | Конечный сектор
---------------------------------------------------------------------
1  |  0:00.00 |    3:07.15   |           0      |      14039
2  |  3:07.15 |    2:49.21   |       14040      |      26735
3  |  5:56.36 |    5:07.36   |       26736      |      49796
4  | 11:03.72 |    5:30.31   |       49797      |      74577
5  | 16:34.28 |    2:12.55   |       74578      |      84532
6  | 18:47.08 |    5:18.01   |       84533      |     108383
7  | 24:05.09 |    3:16.12   |      108384      |     123095
8  | 27:21.21 |    3:55.06   |      123096      |     140726
9  | 31:16.27 |    8:18.25   |      140727      |     178101
10  | 39:34.52 |    3:31.62   |      178102      |     193988
11  | 43:06.39 |    7:00.29   |      193989      |     225517
12  | 50:06.68 |    2:53.34   |      225518      |     238526
13  | 53:00.27 |    3:05.72   |      238527      |     252473
14  | 56:06.24 |    3:34.28   |      252474      |     268551
15  | 59:40.52 |    6:14.32   |      268552      |     296633
16  | 65:55.09 |    3:36.55   |      296634      |     312888
17  | 69:31.64 |    4:37.72   |      312889      |     333735
Характеристики диапазона извлечения и сообщения об ошибках
Выбранный диапазон
Имя файла D:\ВИА,ГРУППЫ,АНСАМБЛИ\ВИА «АРИЭЛЬ» (Золотая коллекция ВИА) [LP,CD,EP] lossless\[CD]\ВИА «АРИЭЛЬ» © 2001 УРАЛТОН [CD] ЗОЛОТАЯ КОЛЛЕКЦИЯ 1CD-4CD\ВИА «АРИЭЛЬ» © 2001 [1CD]\ВИА «АРИЭЛЬ» -  ЗОЛОТАЯ КОЛЛЕКЦИЯ   CD01.wav
Пиковый уровень 100.0 %
Качество диапазона 100.0 %
CRC теста 33F96405
CRC копии 33F96405
Копирование... OK
Ошибок не произошло
AccurateRip: сводка
Трек  1  нет в базе данных
Трек  2  нет в базе данных
Трек  3  нет в базе данных
Трек  4  нет в базе данных
Трек  5  нет в базе данных
Трек  6  нет в базе данных
Трек  7  нет в базе данных
Трек  8  нет в базе данных
Трек  9  нет в базе данных
Трек 10  нет в базе данных
Трек 11  нет в базе данных
Трек 12  нет в базе данных
Трек 13  нет в базе данных
Трек 14  нет в базе данных
Трек 15  нет в базе данных
Трек 16  нет в базе данных
Трек 17  нет в базе данных
Ни одного трека нет в базе AccurateRip
Конец отчёта

CD 2

Exact Audio Copy V0.99 prebeta 3 from 28. July 2007
Отчёт EAC об извлечении, выполненном 17. февраля 2010, 19:36
ВИА «АРИЭЛЬ» / "ЗОЛОТАЯ КОЛЛЕКЦИЯ"  CD02
Дисковод: Optiarc DVD RW AD-7190A   Adapter: 0  ID: 0
Режим чтения                 : Достоверность
Использование точного потока : Да
Отключение кэша аудио        : Да
Использование указателей C2  : Нет
Коррекция смещения при чтении                     : 6
Способность читать области Lead-in и Lead-out     : Нет
Заполнение пропущенных сэмплов тишиной            : Да
Удаление блоков с тишиной в начале и конце        : Нет
При вычислениях CRC использовались нулевые сэмплы : Да
Интерфейс                                         : Встроенный Win32-интерфейс для Win NT/2000
Выходной формат : Внутренние WAV-операции
Формат сэмплов  : 44.100 Гц; 16 бит; стерео
TOC извлечённого CD
Трек |   Старт  | Длительность | Начальный сектор | Конечный сектор
---------------------------------------------------------------------
1  |  0:00.00 |    7:03.21   |           0      |      31745
2  |  7:03.21 |    4:03.47   |       31746      |      50017
3  | 11:06.68 |    7:16.70   |       50018      |      82787
4  | 18:23.63 |    3:13.70   |       82788      |      97332
5  | 21:37.58 |    4:45.73   |       97333      |     118780
6  | 26:23.56 |    3:12.34   |      118781      |     133214
7  | 29:36.15 |    2:33.54   |      133215      |     144743
8  | 32:09.69 |    4:06.44   |      144744      |     163237
9  | 36:16.38 |    3:24.09   |      163238      |     178546
10  | 39:40.47 |    2:21.00   |      178547      |     189121
11  | 42:01.47 |    3:55.66   |      189122      |     206812
12  | 45:57.38 |    2:14.54   |      206813      |     216916
13  | 48:12.17 |    5:14.30   |      216917      |     240496
14  | 53:26.47 |    2:51.52   |      240497      |     253373
15  | 56:18.24 |    2:00.04   |      253374      |     262377
16  | 58:18.28 |    4:25.14   |      262378      |     282266
17  | 62:43.42 |    4:06.23   |      282267      |     300739
18  | 66:49.65 |    3:13.70   |      300740      |     315284
19  | 70:03.60 |    2:51.62   |      315285      |     328171
Характеристики диапазона извлечения и сообщения об ошибках
Выбранный диапазон
Имя файла D:\ВИА,ГРУППЫ,АНСАМБЛИ\ВИА «АРИЭЛЬ» (Золотая коллекция ВИА) [LP,CD,EP] lossless\[CD]\ВИА «АРИЭЛЬ» © 2001 УРАЛТОН [CD] ЗОЛОТАЯ КОЛЛЕКЦИЯ 1CD-4CD\ВИА «АРИЭЛЬ» © 2001 [2CD]\ВИА «АРИЭЛЬ» -  ЗОЛОТАЯ КОЛЛЕКЦИЯ   CD02.wav
Пиковый уровень 100.0 %
Качество диапазона 99.9 %
CRC теста 721A5501
CRC копии 721A5501
Копирование... OK
Ошибок не произошло
AccurateRip: сводка
Трек  1  нет в базе данных
Трек  2  нет в базе данных
Трек  3  нет в базе данных
Трек  4  нет в базе данных
Трек  5  нет в базе данных
Трек  6  нет в базе данных
Трек  7  нет в базе данных
Трек  8  нет в базе данных
Трек  9  нет в базе данных
Трек 10  нет в базе данных
Трек 11  нет в базе данных
Трек 12  нет в базе данных
Трек 13  нет в базе данных
Трек 14  нет в базе данных
Трек 15  нет в базе данных
Трек 16  нет в базе данных
Трек 17  нет в базе данных
Трек 18  нет в базе данных
Трек 19  нет в базе данных
Ни одного трека нет в базе AccurateRip
Конец отчёта

CD 3

Exact Audio Copy V0.99 prebeta 3 from 28. July 2007
Отчёт EAC об извлечении, выполненном 17. февраля 2010, 20:05
ВИА «АРИЭЛЬ» / "ЗОЛОТАЯ КОЛЛЕКЦИЯ"  CD03
Дисковод: Optiarc DVD RW AD-7190A   Adapter: 0  ID: 0
Режим чтения                 : Достоверность
Использование точного потока : Да
Отключение кэша аудио        : Да
Использование указателей C2  : Нет
Коррекция смещения при чтении                     : 6
Способность читать области Lead-in и Lead-out     : Нет
Заполнение пропущенных сэмплов тишиной            : Да
Удаление блоков с тишиной в начале и конце        : Нет
При вычислениях CRC использовались нулевые сэмплы : Да
Интерфейс                                         : Встроенный Win32-интерфейс для Win NT/2000
Выходной формат : Внутренние WAV-операции
Формат сэмплов  : 44.100 Гц; 16 бит; стерео
TOC извлечённого CD
Трек |   Старт  | Длительность | Начальный сектор | Конечный сектор
---------------------------------------------------------------------
1  |  0:00.00 |    3:52.15   |           0      |      17414
2  |  3:52.15 |    5:16.13   |       17415      |      41127
3  |  9:08.28 |    2:30.35   |       41128      |      52412
4  | 11:38.63 |    2:40.23   |       52413      |      64435
5  | 14:19.11 |    4:27.23   |       64436      |      84483
6  | 18:46.34 |    3:55.11   |       84484      |     102119
7  | 22:41.45 |    3:41.23   |      102120      |     118717
8  | 26:22.68 |    6:19.61   |      118718      |     147203
9  | 32:42.54 |    3:21.73   |      147204      |     162351
10  | 36:04.52 |    2:58.52   |      162352      |     175753
11  | 39:03.29 |    4:50.40   |      175754      |     197543
12  | 43:53.69 |    3:32.62   |      197544      |     213505
13  | 47:26.56 |    5:41.53   |      213506      |     239133
14  | 53:08.34 |    4:18.35   |      239134      |     258518
15  | 57:26.69 |    2:25.26   |      258519      |     269419
16  | 59:52.20 |    4:23.38   |      269420      |     289182
17  | 64:15.58 |    3:07.39   |      289183      |     303246
18  | 67:23.22 |    4:55.62   |      303247      |     325433
19  | 72:19.09 |    3:45.21   |      325434      |     342329
Характеристики диапазона извлечения и сообщения об ошибках
Выбранный диапазон
Имя файла D:\ВИА,ГРУППЫ,АНСАМБЛИ\ВИА «АРИЭЛЬ» (Золотая коллекция ВИА) [LP,CD,EP] lossless\[CD]\ВИА «АРИЭЛЬ» © 2001 УРАЛТОН [CD] ЗОЛОТАЯ КОЛЛЕКЦИЯ 1CD-4CD\ВИА «АРИЭЛЬ» © 2001 [3CD]\ВИА «АРИЭЛЬ» -  ЗОЛОТАЯ КОЛЛЕКЦИЯ   CD03.wav
Пиковый уровень 100.0 %
Качество диапазона 100.0 %
CRC теста AF29E3E2
CRC копии AF29E3E2
Копирование... OK
Ошибок не произошло
AccurateRip: сводка
Трек  1  нет в базе данных
Трек  2  нет в базе данных
Трек  3  нет в базе данных
Трек  4  нет в базе данных
Трек  5  нет в базе данных
Трек  6  нет в базе данных
Трек  7  нет в базе данных
Трек  8  нет в базе данных
Трек  9  нет в базе данных
Трек 10  нет в базе данных
Трек 11  нет в базе данных
Трек 12  нет в базе данных
Трек 13  нет в базе данных
Трек 14  нет в базе данных
Трек 15  нет в базе данных
Трек 16  нет в базе данных
Трек 17  нет в базе данных
Трек 18  нет в базе данных
Трек 19  нет в базе данных
Ни одного трека нет в базе AccurateRip
Конец отчёта

CD 4

Exact Audio Copy V0.99 prebeta 3 from 28. July 2007
Отчёт EAC об извлечении, выполненном 17. февраля 2010, 20:33
ВИА «АРИЭЛЬ» / "ЗОЛОТАЯ КОЛЛЕКЦИЯ"  CD04
Дисковод: Optiarc DVD RW AD-7190A   Adapter: 0  ID: 0
Режим чтения                 : Достоверность
Использование точного потока : Да
Отключение кэша аудио        : Да
Использование указателей C2  : Нет
Коррекция смещения при чтении                     : 6
Способность читать области Lead-in и Lead-out     : Нет
Заполнение пропущенных сэмплов тишиной            : Да
Удаление блоков с тишиной в начале и конце        : Нет
При вычислениях CRC использовались нулевые сэмплы : Да
Интерфейс                                         : Встроенный Win32-интерфейс для Win NT/2000
Выходной формат : Внутренние WAV-операции
Формат сэмплов  : 44.100 Гц; 16 бит; стерео
TOC извлечённого CD
Трек |   Старт  | Длительность | Начальный сектор | Конечный сектор
---------------------------------------------------------------------
1  |  0:00.00 |    3:27.13   |           0      |      15537
2  |  3:27.13 |    4:38.06   |       15538      |      36393
3  |  8:05.19 |    4:23.24   |       36394      |      56142
4  | 12:28.43 |    3:34.36   |       56143      |      72228
5  | 16:03.04 |    3:49.66   |       72229      |      89469
6  | 19:52.70 |    4:04.29   |       89470      |     107798
7  | 23:57.24 |    3:58.06   |      107799      |     125654
8  | 27:55.30 |    3:25.48   |      125655      |     141077
9  | 31:21.03 |    3:24.32   |      141078      |     156409
10  | 34:45.35 |    4:18.15   |      156410      |     175774
11  | 39:03.50 |    3:49.04   |      175775      |     192953
12  | 42:52.54 |    3:45.14   |      192954      |     209842
13  | 46:37.68 |    3:19.66   |      209843      |     224833
14  | 49:57.59 |    3:20.18   |      224834      |     239851
15  | 53:18.02 |    2:58.53   |      239852      |     253254
16  | 56:16.55 |    3:42.54   |      253255      |     269958
17  | 59:59.34 |    3:27.67   |      269959      |     285550
18  | 63:27.26 |    4:21.69   |      285551      |     305194
Характеристики диапазона извлечения и сообщения об ошибках
Выбранный диапазон
Имя файла D:\ВИА,ГРУППЫ,АНСАМБЛИ\ВИА «АРИЭЛЬ» (Золотая коллекция ВИА) [LP,CD,EP] lossless\[CD]\ВИА «АРИЭЛЬ» © 2001 УРАЛТОН [CD] ЗОЛОТАЯ КОЛЛЕКЦИЯ 1CD-4CD\ВИА «АРИЭЛЬ» © 2001 [4CD]\ВИА «АРИЭЛЬ» -  ЗОЛОТАЯ КОЛЛЕКЦИЯ   CD04.wav
Пиковый уровень 100.0 %
Качество диапазона 100.0 %
CRC теста 1FDC25A9
CRC копии 1FDC25A9
Копирование... OK
Ошибок не произошло
AccurateRip: сводка
Трек  1  нет в базе данных
Трек  2  нет в базе данных
Трек  3  нет в базе данных
Трек  4  нет в базе данных
Трек  5  нет в базе данных
Трек  6  нет в базе данных
Трек  7  нет в базе данных
Трек  8  нет в базе данных
Трек  9  нет в базе данных
Трек 10  нет в базе данных
Трек 11  нет в базе данных
Трек 12  нет в базе данных
Трек 13  нет в базе данных
Трек 14  нет в базе данных
Трек 15  нет в базе данных
Трек 16  нет в базе данных
Трек 17  нет в базе данных
Трек 18  нет в базе данных
Ни одного трека нет в базе AccurateRip
Конец отчёта

содержание индексной карты *cue

CD 1

REM GENRE Retro/Rock
REM DATE 2001
REM DISCID 20116111
REM COMMENT "ExactAudioCopy v0.99pb3"
PERFORMER "ВИА «АРИЭЛЬ»"
TITLE "'ЗОЛОТАЯ КОЛЛЕКЦИЯ'  CD01"
FILE "ВИА «АРИЭЛЬ» -  ЗОЛОТАЯ КОЛЛЕКЦИЯ   CD01.flac" WAVE
TRACK 01 AUDIO
TITLE "Зимы и вёсны (Музыка и слова В. Ярушина)"
PERFORMER "ВИА «АРИЭЛЬ»"
INDEX 01 00:00:00
TRACK 02 AUDIO
TITLE "Маленькая история (Музыка и слова В. Ярушина)"
PERFORMER "ВИА «АРИЭЛЬ»"
INDEX 01 03:07:15
TRACK 03 AUDIO
TITLE "Обращение к России (Музыка и слова В. Ярушина)"
PERFORMER "ВИА «АРИЭЛЬ»"
INDEX 01 05:56:36
TRACK 04 AUDIO
TITLE "Орган в ночи (Р. Паулс - Д. Авотыня , перевод Л. Азаровой)"
PERFORMER "ВИА «АРИЭЛЬ»"
INDEX 01 11:03:72
TRACK 05 AUDIO
TITLE "Песенка в старинном стиле (Музыка и слова С. Шарикова)"
PERFORMER "ВИА «АРИЭЛЬ»"
INDEX 01 16:34:28
TRACK 06 AUDIO
TITLE "Тишина (Музыка и слова Л. Гурова)"
PERFORMER "ВИА «АРИЭЛЬ»"
INDEX 01 18:47:08
TRACK 07 AUDIO
TITLE "Старая пластинка (Н. Богословский - Я. Родионов)"
PERFORMER "ВИА «АРИЭЛЬ»"
INDEX 01 24:05:09
TRACK 08 AUDIO
TITLE "Где ждёт любовь (Музыка и слова А. Богословского)"
PERFORMER "ВИА «АРИЭЛЬ»"
INDEX 01 27:21:21
TRACK 09 AUDIO
TITLE "Парафраз на тему русской народной песни 'Отдавали молоду' (В. Ярушин)"
PERFORMER "ВИА «АРИЭЛЬ»"
INDEX 01 31:16:27
TRACK 10 AUDIO
TITLE "Здравствуй , мама ! (Д. Тухманов - Р. Рождественский)"
PERFORMER "ВИА «АРИЭЛЬ»"
INDEX 01 39:34:52
TRACK 11 AUDIO
TITLE "Поэма о солнечном городе (Музыка и слова В. Ярушина)"
PERFORMER "ВИА «АРИЭЛЬ»"
INDEX 01 43:06:39
TRACK 12 AUDIO
TITLE "За окном весна (Музыка и слова Л. Гурова)"
PERFORMER "ВИА «АРИЭЛЬ»"
INDEX 01 50:06:68
TRACK 13 AUDIO
TITLE "Не ищи меня (С. Краевский - Л. Гуров)"
PERFORMER "ВИА «АРИЭЛЬ»"
INDEX 01 53:00:27
TRACK 14 AUDIO
TITLE "Водонос (Г. Фрейденфельд - В. Ярушин)"
PERFORMER "ВИА «АРИЭЛЬ»"
INDEX 01 56:06:24
TRACK 15 AUDIO
TITLE "Одиночество (Р. Паулс - Д. Авотыня , перевод Л. Азаровой)"
PERFORMER "ВИА «АРИЭЛЬ»"
INDEX 01 59:40:52
TRACK 16 AUDIO
TITLE "Колокола (Р. Паулс - Д. Авотыня , перевод Л. Азаровой)"
PERFORMER "ВИА «АРИЭЛЬ»"
INDEX 01 65:55:09
TRACK 17 AUDIO
TITLE "Уходишь ты (А. Зацепин - Л. Дербенёв)"
PERFORMER "ВИА «АРИЭЛЬ»"
INDEX 01 69:31:64

CD 2

REM GENRE Retro/Rock
REM DATE 2001
REM DISCID 1A111713
REM COMMENT "ExactAudioCopy v0.99pb3"
PERFORMER "ВИА «АРИЭЛЬ»"
TITLE "'ЗОЛОТАЯ КОЛЛЕКЦИЯ'  CD02"
FILE "ВИА «АРИЭЛЬ» -  ЗОЛОТАЯ КОЛЛЕКЦИЯ   CD02.flac" WAVE
TRACK 01 AUDIO
TITLE "Народное гуляние (В. Ярушин - А. Раскин)"
PERFORMER "ВИА «АРИЭЛЬ»"
INDEX 01 00:00:00
TRACK 02 AUDIO
TITLE "Алёнушка (Музыка и слова Р. Геппа)"
PERFORMER "ВИА «АРИЭЛЬ»"
INDEX 01 07:03:21
TRACK 03 AUDIO
TITLE "Скоморошина (В. Ярушин - А. Раскин)"
PERFORMER "ВИА «АРИЭЛЬ»"
INDEX 01 11:06:68
TRACK 04 AUDIO
TITLE "Частушки (А. Румянцев - Слова народные)"
PERFORMER "ВИА «АРИЭЛЬ»"
INDEX 01 18:23:63
TRACK 05 AUDIO
TITLE "Отставала лебёдушка (Русская народная песня , обработка В. Ярушина)"
PERFORMER "ВИА «АРИЭЛЬ»"
INDEX 01 21:37:58
TRACK 06 AUDIO
TITLE "Я на камушке сижу (Русская народная песня , обработка В. Ярушина)"
PERFORMER "ВИА «АРИЭЛЬ»"
INDEX 01 26:23:56
TRACK 07 AUDIO
TITLE "По блюду , блюду серебряному (Русская народная песня , обработка В. Ярушина)"
PERFORMER "ВИА «АРИЭЛЬ»"
INDEX 01 29:36:15
TRACK 08 AUDIO
TITLE "Как по реченьке гоголюшка плывёт (Русская народная песня , обработка В. Ярушина)"
PERFORMER "ВИА «АРИЭЛЬ»"
INDEX 01 32:09:69
TRACK 09 AUDIO
TITLE "Отчего же наша сваха (Русская народная песня , обработка В. Ярушина)"
PERFORMER "ВИА «АРИЭЛЬ»"
INDEX 01 36:16:38
TRACK 10 AUDIO
TITLE "По полю , полю (Русская народная песня , обработка В. Ярушина)"
PERFORMER "ВИА «АРИЭЛЬ»"
INDEX 01 39:40:47
TRACK 11 AUDIO
TITLE "Расскажу тебе , кума (Русская народная песня , обработка В. Ярушина)"
PERFORMER "ВИА «АРИЭЛЬ»"
INDEX 01 42:01:47
TRACK 12 AUDIO
TITLE "В амбар , за мукой (Русская народная песня , обработка В. Ярушина)"
PERFORMER "ВИА «АРИЭЛЬ»"
INDEX 01 45:57:38
TRACK 13 AUDIO
TITLE "Степь да степь кругом (Русская народная песня , обработка В. Ярушина)"
PERFORMER "ВИА «АРИЭЛЬ»"
INDEX 01 48:12:17
TRACK 14 AUDIO
TITLE "Уж вы стары - старики (В. Ярушин - слова народные)"
PERFORMER "ВИА «АРИЭЛЬ»"
INDEX 01 53:26:47
TRACK 15 AUDIO
TITLE "Пчёлочка златая (Русская народная песня , обработка В. Ярушина)"
PERFORMER "ВИА «АРИЭЛЬ»"
INDEX 01 56:18:24
TRACK 16 AUDIO
TITLE "Дубравушка (В. Ярушин - слова народные)"
PERFORMER "ВИА «АРИЭЛЬ»"
INDEX 01 58:18:28
TRACK 17 AUDIO
TITLE "Всё небо тучами покрыто (Русская народная песня , обработка В. Ярушина)"
PERFORMER "ВИА «АРИЭЛЬ»"
INDEX 01 62:43:42
TRACK 18 AUDIO
TITLE "Уж ты , ночка (В. Ярушин - слова народные)"
PERFORMER "ВИА «АРИЭЛЬ»"
INDEX 01 66:49:65
TRACK 19 AUDIO
TITLE "Вечор , вечор , матушка (Русская народная песня , обработка В. Ярушина)"
PERFORMER "ВИА «АРИЭЛЬ»"
INDEX 01 70:03:60

CD 3

REM GENRE Retro/Rock
REM DATE 2001
REM DISCID 1311D413
REM COMMENT "ExactAudioCopy v0.99pb3"
PERFORMER "ВИА «АРИЭЛЬ»"
TITLE "'ЗОЛОТАЯ КОЛЛЕКЦИЯ'  CD03"
FILE "ВИА «АРИЭЛЬ» -  ЗОЛОТАЯ КОЛЛЕКЦИЯ   CD03.flac" WAVE
TRACK 01 AUDIO
TITLE "На острове Буяне (А. Морозов - Л. Дербенёв)"
PERFORMER "ВИА «АРИЭЛЬ»"
INDEX 01 00:00:00
TRACK 02 AUDIO
TITLE "На горе , на горенке (Русская народная песня , обработка В. Ярушина)"
PERFORMER "ВИА «АРИЭЛЬ»"
INDEX 01 03:52:15
TRACK 03 AUDIO
TITLE "Нахлебался пресного молока (Русская народная песня , обработка В. Ярушина)"
PERFORMER "ВИА «АРИЭЛЬ»"
INDEX 01 09:08:28
TRACK 04 AUDIO
TITLE "Баба Яга (Т. Ефимов - Ю. Мажаров)"
PERFORMER "ВИА «АРИЭЛЬ»"
INDEX 01 11:38:63
TRACK 05 AUDIO
TITLE "Танюша (Ю. Мелехов - С. Есенин)"
PERFORMER "ВИА «АРИЭЛЬ»"
INDEX 01 14:19:11
TRACK 06 AUDIO
TITLE "Блоха (Русская народная песня , обработка В. Ярушина)"
PERFORMER "ВИА «АРИЭЛЬ»"
INDEX 01 18:46:34
TRACK 07 AUDIO
TITLE "Лесной дуэт (Баба Яга - 2) (В. Ярушин - О. Жуков)"
PERFORMER "ВИА «АРИЭЛЬ»"
INDEX 01 22:41:45
TRACK 08 AUDIO
TITLE "На улице дождик (Русская народная песня , обработка В. Ярушина)"
PERFORMER "ВИА «АРИЭЛЬ»"
INDEX 01 26:22:68
TRACK 09 AUDIO
TITLE "Ой да головушка моя болела (Русская народная песня , обработка В. Ярушина)"
PERFORMER "ВИА «АРИЭЛЬ»"
INDEX 01 32:42:54
TRACK 10 AUDIO
TITLE "Баба Яга - 3 (Т. Ефимов - В. Успенский , А. Курляндский)"
PERFORMER "ВИА «АРИЭЛЬ»"
INDEX 01 36:04:52
TRACK 11 AUDIO
TITLE "Долина - долинушка (Русская народная песня , обработка В. Ярушина)"
PERFORMER "ВИА «АРИЭЛЬ»"
INDEX 01 39:03:29
TRACK 12 AUDIO
TITLE "Ты могла (В. Ярушин - А. Костерев)"
PERFORMER "ВИА «АРИЭЛЬ»"
INDEX 01 43:53:69
TRACK 13 AUDIO
TITLE "Четыре бочки (В. Ярушин - С. Кутанин)"
PERFORMER "ВИА «АРИЭЛЬ»"
INDEX 01 47:26:56
TRACK 14 AUDIO
TITLE "Истина (В. Ярушин - А. Костерев)"
PERFORMER "ВИА «АРИЭЛЬ»"
INDEX 01 53:08:34
TRACK 15 AUDIO
TITLE "Я лицо твоё не помню (В. Малежик - В. Попков)"
PERFORMER "ВИА «АРИЭЛЬ»"
INDEX 01 57:26:69
TRACK 16 AUDIO
TITLE "Всё равно тебя люблю я (Т. Ефимов - Д. Усманов)"
PERFORMER "ВИА «АРИЭЛЬ»"
INDEX 01 59:52:20
TRACK 17 AUDIO
TITLE "Сладкая планета (С. Шариков - С. Кутанин)"
PERFORMER "ВИА «АРИЭЛЬ»"
INDEX 01 64:15:58
TRACK 18 AUDIO
TITLE "Волки гонят оленя (А. Зацепин - Л. Дербенёв)"
PERFORMER "ВИА «АРИЭЛЬ»"
INDEX 01 67:23:22
TRACK 19 AUDIO
TITLE "Уж ты , Порушка - Параня (Русская народная песня , обработка В. Ярушина)"
PERFORMER "ВИА «АРИЭЛЬ»"
INDEX 01 72:19:09

CD 4

REM GENRE Retro/Rock
REM DATE 2001
REM DISCID 2B0FE512
REM COMMENT "ExactAudioCopy v0.99pb3"
PERFORMER "ВИА «АРИЭЛЬ»"
TITLE "'ЗОЛОТАЯ КОЛЛЕКЦИЯ'  CD04"
FILE "ВИА «АРИЭЛЬ» -  ЗОЛОТАЯ КОЛЛЕКЦИЯ   CD04.flac" WAVE
TRACK 01 AUDIO
TITLE "В краю магнолий (А. Морозов - Ю. Марцинкевич)"
PERFORMER "ВИА «АРИЭЛЬ»"
INDEX 01 00:00:00
TRACK 02 AUDIO
TITLE "Шире круг (Р. Паулс - И. Резник)"
PERFORMER "ВИА «АРИЭЛЬ»"
INDEX 01 03:27:13
TRACK 03 AUDIO
TITLE "Храни меня , дождь (Р. Гепп - А. Залесский)"
PERFORMER "ВИА «АРИЭЛЬ»"
INDEX 01 08:05:19
TRACK 04 AUDIO
TITLE "Каждый день - твой (А. Морозов - Л. Дербенёв)"
PERFORMER "ВИА «АРИЭЛЬ»"
INDEX 01 12:28:43
TRACK 05 AUDIO
TITLE "Комната смеха (Т. Ефимов - Д. Усманов)"
PERFORMER "ВИА «АРИЭЛЬ»"
INDEX 01 16:03:04
TRACK 06 AUDIO
TITLE "Благодарствуйте , сударыня (Т. Ефимов - В. Солоухин)"
PERFORMER "ВИА «АРИЭЛЬ»"
INDEX 01 19:52:70
TRACK 07 AUDIO
TITLE "Захотелось быть (Т. Ефимов - В. Солоухин)"
PERFORMER "ВИА «АРИЭЛЬ»"
INDEX 01 23:57:24
TRACK 08 AUDIO
TITLE "Ты - музыка (С. Шариков - С. Кутанин)"
PERFORMER "ВИА «АРИЭЛЬ»"
INDEX 00 27:54:30
INDEX 01 27:55:30
TRACK 09 AUDIO
TITLE "У моей зазнобы (Музыка и слова Ю. Лозы)"
PERFORMER "ВИА «АРИЭЛЬ»"
INDEX 01 31:21:03
TRACK 10 AUDIO
TITLE "Не запирай дверей (Ю. Лоза - В. Нуров)"
PERFORMER "ВИА «АРИЭЛЬ»"
INDEX 01 34:45:35
TRACK 11 AUDIO
TITLE "Дела (Ю. Лоза - Б. Шифрин)"
PERFORMER "ВИА «АРИЭЛЬ»"
INDEX 01 39:03:50
TRACK 12 AUDIO
TITLE "Заповедные места (Ю. Лоза - А. Жигарев)"
PERFORMER "ВИА «АРИЭЛЬ»"
INDEX 01 42:52:54
TRACK 13 AUDIO
TITLE "Детские глаза (Ю. Лоза - Ю. Гуреев)"
PERFORMER "ВИА «АРИЭЛЬ»"
INDEX 01 46:37:68
TRACK 14 AUDIO
TITLE "Вечерний разговор (Ю. Лоза - А. Дидуров)"
PERFORMER "ВИА «АРИЭЛЬ»"
INDEX 01 49:57:59
TRACK 15 AUDIO
TITLE "Елена (В. Ярушин - Г. Суздалев)"
PERFORMER "ВИА «АРИЭЛЬ»"
INDEX 01 53:18:02
TRACK 16 AUDIO
TITLE "Ненавижу (В. Ярушин - О. Горьков , В. Пикалин)"
PERFORMER "ВИА «АРИЭЛЬ»"
INDEX 01 56:16:55
TRACK 17 AUDIO
TITLE "Исповедь (В. Ярушин - А. Афанасенко)"
PERFORMER "ВИА «АРИЭЛЬ»"
INDEX 01 59:59:34
TRACK 18 AUDIO
TITLE "Южный Урал (В. Ярушин - В. Колтунов)"
PERFORMER "ВИА «АРИЭЛЬ»"
INDEX 01 63:27:26

Audiochecker log

CD 1

AUDIOCHECKER v2.0 beta (build 457) - by Dester - [email protected]
~~~~~~~~~~~~~~~~~~~~~~~~~~~~~~~~~~
Started at: четверг, 19. 02. 2015. - 17:24.09
1 file found
1 -===- D:\Torrent files\2001 - Ariel - Golden Collection\CD1\ВИА «АРИЭЛЬ» -  ЗОЛОТАЯ КОЛЛЕКЦИЯ   CD01.flac
Extracted successfully
Conclusion: this track is CDDA with probability 100%
Tempfile successfully deleted.
Finished at: четверг, 19. 02. 2015. - 17:27.50 (operation time: 0:03.40)

CD 2

AUDIOCHECKER v2.0 beta (build 457) - by Dester - [email protected]
~~~~~~~~~~~~~~~~~~~~~~~~~~~~~~~~~~
Started at: четверг, 19. 02. 2015. - 17:41.45
1 file found
1 -===- D:\Torrent files\2001 - Ariel - Golden Collection\CD2\ВИА «АРИЭЛЬ» -  ЗОЛОТАЯ КОЛЛЕКЦИЯ   CD02.flac
Extracted successfully
Conclusion: this track is CDDA with probability 100%
Tempfile successfully deleted.
Finished at: четверг, 19. 02. 2015. - 17:45.22 (operation time: 0:03.36)

CD 3

AUDIOCHECKER v2.0 beta (build 457) - by Dester - [email protected]
~~~~~~~~~~~~~~~~~~~~~~~~~~~~~~~~~~
Started at: четверг, 19. 02. 2015. - 17:46.15
1 file found
1 -===- D:\Torrent files\2001 - Ariel - Golden Collection\CD3\ВИА «АРИЭЛЬ» -  ЗОЛОТАЯ КОЛЛЕКЦИЯ   CD03.flac
Extracted successfully
Conclusion: this track is CDDA with probability 100%
Tempfile successfully deleted.
Finished at: четверг, 19. 02. 2015. - 17:50.03 (operation time: 0:03.47)

CD 4

AUDIOCHECKER v2.0 beta (build 457) - by Dester - [email protected]
~~~~~~~~~~~~~~~~~~~~~~~~~~~~~~~~~~
Started at: четверг, 19. 02. 2015. - 17:50.47
1 file found
1 -===- D:\Torrent files\2001 - Ariel - Golden Collection\CD4\ВИА «АРИЭЛЬ» -  ЗОЛОТАЯ КОЛЛЕКЦИЯ   CD04.flac
Extracted successfully
Conclusion: this track is CDDA with probability 100%
Tempfile successfully deleted.
Finished at: четверг, 19. 02. 2015. - 17:54.15 (operation time: 0:03.27)
-

скриншоты проверки качества:

CD 1

CD 2

CD 3

CD 4

дополнительная информация:

ВИА «Ариэль» — советская и российская музыкальная группа из Челябинска, датой основания которой принято считать 7 ноября 1970 года. Руководитель ансамбля до 1989 года — Валерий Ярушин. С 1989 года и по сегодняшний день — Ростислав Гепп.- -
--Не забываем говорить
Яндекс.Метрика
Рейтинг@Mail.ru