Будильник / Alarm (2009) WEB-DL 720p | 60fps

 

Создавать темы 19-Фев-2015 17:18

Будильник / Alarm (2009) WEB-DL 720p | 60fps«....»- Информация о фильме
Название: Будильник
Оригинальное название: Alarm
Год выхода: 2009
Жанр: Мультфильм, короткометражка
Режиссер: Джанг Му Хюн
Описание фильма:
Будильник — «лучший друг» человека! Мультфильм для всех, кто не любит вставать по утрам, а лишнюю минутку поспать!
Страна: Южная Корея
Продолжительность: 00:08:52
Перевод: Не требуется
Субтитры:Отсутствуют
Файл
Формат: MKV
Кодек: MPEG-4 AVC/H.264
Качество: BDRip 720p
Видео: ~ 6058 Кбит/сек, 1280 x 720, 59.940 кадров/сек
Аудио: AC3 2, 48.0 KHz, 192 Кбит/сек

MediaInfo

Общее
Уникальный идентификатор : 195389354850984118646916206340293498820 (0x92FE9EF569A9EEC3A00220489A3F97C4)
Полное имя : D:\Торренты\Alarm 60fps.mkv
Формат : Matroska
Версия формата : Version 2
Размер файла : 405 Мбайт
Продолжительность : 8 м. 52 с.
Общий поток : 6377 Кбит/сек
Название фильма : Alarm.2009.WEB-DL 720p [-Azureus-]
Дата кодирования : UTC 2015-02-17 15:00:31
Программа кодирования : mkvmerge v6.1.0 ('Old Devil') built on Mar 4 2013 09:10:42
Библиотека кодирования : libebml v1.3.0 + libmatroska v1.4.0
Видео
Идентификатор : 1
Формат : AVC
Формат/Информация : Advanced Video Codec
Профиль формата : [email protected]
Параметр CABAC формата : Да
Параметр ReFrames формата : 6 кадров
Идентификатор кодека : V_MPEG4/ISO/AVC
Продолжительность : 8 м. 52 с.
Битрейт : 6058 Кбит/сек
Ширина : 1280 пикселей
Высота : 720 пикселей
Соотношение сторон : 16:9
Режим частоты кадров : Постоянный
Частота кадров : 60,000 кадров/сек
Цветовое пространство : YUV
Субдискретизация насыщенности : 4:2:0
Битовая глубина : 8 бит
Тип развёртки : Прогрессивная
Бит/(Пиксели*Кадры) : 0.110
Размер потока : 385 Мбайт (95%)
Библиотека кодирования : x264 core 130 r2273 b3065e6
Настройки программы : cabac=1 / ref=6 / deblock=1:0:0 / analyse=0x3:0x133 / me=umh / subme=8 / psy=1 / psy_rd=1.00:0.15 / mixed_ref=1 / me_range=20 / chroma_me=1 / trellis=2 / 8x8dct=1 / cqm=0 / deadzone=21,11 / fast_pskip=0 / chroma_qp_offset=-3 / threads=6 / lookahead_threads=2 / sliced_threads=0 / nr=0 / decimate=0 / interlaced=0 / bluray_compat=0 / constrained_intra=0 / bframes=8 / b_pyramid=2 / b_adapt=2 / b_bias=0 / direct=1 / weightb=1 / open_gop=0 / weightp=2 / keyint=250 / keyint_min=25 / scenecut=40 / intra_refresh=0 / rc=crf / mbtree=0 / crf=18.0 / qcomp=0.63 / qpmin=10 / qpmax=51 / qpstep=4 / ip_ratio=1.40 / pb_ratio=1.30 / aq=1:1.20
Default : Да
Forced : Нет
Аудио
Идентификатор : 2
Формат : AC-3
Формат/Информация : Audio Coding 3
Расширение режима : CM (complete main)
Параметр Endianness формата : Big
Идентификатор кодека : A_AC3
Продолжительность : 8 м. 52 с.
Вид битрейта : Постоянный
Битрейт : 192 Кбит/сек
Каналы : 2 канала
Расположение каналов : Front: L R
Частота : 48,0 КГц
Битовая глубина : 16 бит
Метод сжатия : С потерями
Размер потока : 12,2 Мбайт (3%)
Default : Да
Forced : Нет

Скриншоты:

Яндекс.Метрика
Рейтинг@Mail.ru