(Rock, Pop, Synth-pop, New Wave) VA - All The... 80's (3CD) - 2012 [FLAC, tracks+.cue, lossless]

 

Создавать темы 18-Фев-2015 17:33

-All The... 80's (3CD)-- Год издания: 2012
Страна: ---
Жанр: Rock, Pop, Synth-pop, New Wave
Продолжительность: 03:11:54-Лейбл издания: Warner Music
Тип альбома: Compilation
Страна-выпуска диска: USA
Номер по каталогу: 5310516132
Формат: FLAC
Битрейт аудио: lossless
Тип рипа: tracks+.cue
Наличие сканов в содержимом раздачи: front


Трэклист

CD 1 | 01:05:18

01. Cold Chisel - Standing On The Outside (02:55)
02. ZZ Top - Legs (04:35)
03. Violent Femmes - Blister In The Sun (02:26)
04. Pretenders - Brass In Pocket (03:05)
05. The Steve Miller Band - Abracadabra (03:42)
06. Foreigner - I Want To Know What Love Is (05:01)
07. The Cars - Drive (03:57)
08. Yes - Owner Of A Lonely Heart (04:28)
09. The B-52's - Love Shack (04:25)
10. Fine Young Cannibals - She Drives Me Crazy (03:36)
11. Ian Moss - Tucker's Daughter (04:34)
12. Los Lobos - La Bamba (02:53)
13. David Lee Roth - California Girls (02:47)
14. Goanna - Solid Rock (04:34)
15. Choirboys - Run To Paradise (04:09)
16. The Beach Boys - Kokomo (03:33)
17. Chicago - Hard Habit To Break (04:46)

CD 2 | 01:03:51

01. New Order - Blue Monday '88 (04:08)
02. Blancmange - Living On The Ceiling (04:02)
03. Echo And The Bunnymen - The Killing Moon (05:48)
04. Models - Out Of Mind Out Of Sight (03:38)
05. Devo - Whip It (02:42)
06. Bananarama - Venus (03:36)
07. Communards With Sarah Jane Morris - Don't Leave Me This Way (04:24)
08. The Swingers - Counting The Beat (03:03)
09. Men Without Hats - The Safety Dance (02:47)
10. Chaka Khan - I Feel For You (05:48)
11. Bronski Beat - Hit That Perfect Beat (03:39)
12. Howard Jones - No One Is To Blame (04:13)
13. Shakespears Sister - You're History (04:28)
14. Sister Sledge - Frankie (04:19)
15. Jimmy Somerville - You Make Me Feel (mighty real) (03:57)
16. Bangles - Walk Like An Egyptian (03:27)

CD 3 | 01:02:46

01. K.C. & The Sunshine Band - Give It Up (04:04)
02. Olivia Newton-John - Physical (03:42)
03. Joey Scarbury - Believe It Or Not (theme from greatest american hero) (03:16)
04. Chris Rea - Let's Dance (04:18)
05. Laura Branigan - Gloria (04:52)
06. Christopher Cross - Ride Like The Wind (04:28)
07. Leo Sayer - More Than I Can Say (03:41)
08. Mental As Anything - Live It Up (03:50)
09. Sabrina - Boys (summertime love) (03:48)
10. Natalie Cole - Pink Cadillac (04:29)
11. Simply Red - If You Don't Know Me By Now (03:27)
12. Patrice Rushen - Forget Me Nots (04:08)
13. Sheila E - The Glamorous Life (part 1) (03:45)
14. A-Ha - Take On Me (03:48)
15. Renee Geyer - Say I Love You (03:33)
16. George Benson - Give Me The Night (03:45)

Лог создания рипа

CD 1

Exact Audio Copy V1.0 beta 3 from 29. August 2011
EAC extraction logfile from 9. July 2012, 17:03
Various Artists / All The ... 80's - CD1
Used drive  : ASUS    DRW-24B3ST   Adapter: 0  ID: 2
Read mode               : Secure
Utilize accurate stream : Yes
Defeat audio cache      : Yes
Make use of C2 pointers : No
Read offset correction                      : 6
Overread into Lead-In and Lead-Out          : No
Fill up missing offset samples with silence : Yes
Delete leading and trailing silent blocks   : No
Null samples used in CRC calculations       : Yes
Used interface                              : Native Win32 interface for Win NT & 2000
Gap handling                                : Appended to previous track
Used output format              : User Defined Encoder
Selected bitrate                : 1024 kBit/s
Quality                         : High
Add ID3 tag                     : No
Command line compressor         : C:\Program Files (x86)\Exact Audio Copy\Flac\flac.exe
Additional command line options : -8 -V -T "Artist=%artist%" -T "Title=%title%" -T "Album=%albumtitle%" -T "Date=%year%" -T "Tracknumber=%tracknr%" -T "Genre=%genre%" %source% -o %dest%
TOC of the extracted CD
Track |   Start  |  Length  | Start sector | End sector
---------------------------------------------------------
1  |  0:00.00 |  2:54.61 |         0    |    13110
2  |  2:54.61 |  4:34.52 |     13111    |    33712
3  |  7:29.38 |  2:25.71 |     33713    |    44658
4  |  9:55.34 |  3:04.49 |     44659    |    58507
5  | 13:00.08 |  3:41.72 |     58508    |    75154
6  | 16:42.05 |  5:00.22 |     75155    |    97676
7  | 21:42.27 |  3:56.03 |     97677    |   115379
8  | 25:38.30 |  4:27.55 |    115380    |   135459
9  | 30:06.10 |  4:24.48 |    135460    |   155307
10  | 34:30.58 |  3:35.65 |    155308    |   171497
11  | 38:06.48 |  4:33.18 |    171498    |   191990
12  | 42:39.66 |  2:52.02 |    191991    |   204892
13  | 45:31.68 |  2:46.15 |    204893    |   217357
14  | 48:18.08 |  4:33.05 |    217358    |   237837
15  | 52:51.13 |  4:08.73 |    237838    |   256510
16  | 57:00.11 |  3:32.11 |    256511    |   272421
17  | 60:32.22 |  4:45.08 |    272422    |   293804
Track  1
Filename E:\All The ... 80's - flac\CD1\01 - Cold Chisel - Standing On The Outside.wav
Pre-gap length  0:00:02.00
Peak level 100.0 %
Extraction speed 3.3 X
Track quality 100.0 %
Test CRC 843587EF
Copy CRC 843587EF
Track not present in AccurateRip database
Copy OK
Track  2
Filename E:\All The ... 80's - flac\CD1\02 - ZZ Top - Legs.wav
Peak level 96.4 %
Extraction speed 4.0 X
Track quality 100.0 %
Test CRC E38AD614
Copy CRC E38AD614
Track not present in AccurateRip database
Copy OK
Track  3
Filename E:\All The ... 80's - flac\CD1\03 - Violent Femmes - Blister In The Sun.wav
Peak level 99.9 %
Extraction speed 3.9 X
Track quality 100.0 %
Test CRC C6482DFA
Copy CRC C6482DFA
Track not present in AccurateRip database
Copy OK
Track  4
Filename E:\All The ... 80's - flac\CD1\04 - Pretenders - Brass In Pocket.wav
Peak level 100.0 %
Extraction speed 4.3 X
Track quality 100.0 %
Test CRC 76384CFB
Copy CRC 76384CFB
Track not present in AccurateRip database
Copy OK
Track  5
Filename E:\All The ... 80's - flac\CD1\05 - The Steve Miller Band - Abracadabra.wav
Peak level 97.0 %
Extraction speed 4.6 X
Track quality 100.0 %
Test CRC 68D4914C
Copy CRC 68D4914C
Track not present in AccurateRip database
Copy OK
Track  6
Filename E:\All The ... 80's - flac\CD1\06 - Foreigner - I Want To Know What Love Is.wav
Peak level 99.9 %
Extraction speed 5.1 X
Track quality 100.0 %
Test CRC 9BE5CAC5
Copy CRC 9BE5CAC5
Track not present in AccurateRip database
Copy OK
Track  7
Filename E:\All The ... 80's - flac\CD1\07 - The Cars - Drive.wav
Peak level 100.0 %
Extraction speed 4.2 X
Track quality 99.9 %
Test CRC 0D2A66DB
Copy CRC 0D2A66DB
Track not present in AccurateRip database
Copy OK
Track  8
Filename E:\All The ... 80's - flac\CD1\08 - Yes - Owner Of A Lonely Heart.wav
Peak level 100.0 %
Extraction speed 5.6 X
Track quality 100.0 %
Test CRC 60C54876
Copy CRC 60C54876
Track not present in AccurateRip database
Copy OK
Track  9
Filename E:\All The ... 80's - flac\CD1\09 - The B-52's - Love Shack.wav
Peak level 100.0 %
Extraction speed 5.9 X
Track quality 100.0 %
Test CRC 3DF73322
Copy CRC 3DF73322
Track not present in AccurateRip database
Copy OK
Track 10
Filename E:\All The ... 80's - flac\CD1\10 - Fine Young Cannibals - She Drives Me Crazy.wav
Peak level 100.0 %
Extraction speed 5.9 X
Track quality 100.0 %
Test CRC 7CE5A71F
Copy CRC 7CE5A71F
Track not present in AccurateRip database
Copy OK
Track 11
Filename E:\All The ... 80's - flac\CD1\11 - Ian Moss - Tucker's Daughter.wav
Peak level 92.3 %
Extraction speed 5.1 X
Track quality 99.9 %
Test CRC 53CF061E
Copy CRC 53CF061E
Track not present in AccurateRip database
Copy OK
Track 12
Filename E:\All The ... 80's - flac\CD1\12 - Los Lobos - La Bamba.wav
Peak level 100.0 %
Extraction speed 6.2 X
Track quality 100.0 %
Test CRC D8E357EB
Copy CRC D8E357EB
Track not present in AccurateRip database
Copy OK
Track 13
Filename E:\All The ... 80's - flac\CD1\13 - David Lee Roth - California Girls.wav
Peak level 99.9 %
Extraction speed 6.2 X
Track quality 100.0 %
Test CRC 2FAEEBDC
Copy CRC 2FAEEBDC
Track not present in AccurateRip database
Copy OK
Track 14
Filename E:\All The ... 80's - flac\CD1\14 - Goanna - Solid Rock.wav
Peak level 93.9 %
Extraction speed 6.9 X
Track quality 100.0 %
Test CRC 0DF4B3AA
Copy CRC 0DF4B3AA
Track not present in AccurateRip database
Copy OK
Track 15
Filename E:\All The ... 80's - flac\CD1\15 - Choirboys - Run To Paradise.wav
Peak level 100.0 %
Extraction speed 5.6 X
Track quality 99.9 %
Test CRC 5314E60E
Copy CRC 5314E60E
Track not present in AccurateRip database
Copy OK
Track 16
Filename E:\All The ... 80's - flac\CD1\16 - The Beach Boys - Kokomo.wav
Peak level 100.0 %
Extraction speed 5.5 X
Track quality 99.9 %
Test CRC F8E302AB
Copy CRC F8E302AB
Track not present in AccurateRip database
Copy OK
Track 17
Filename E:\All The ... 80's - flac\CD1\17 - Chicago - Hard Habit To Break.wav
Peak level 95.5 %
Extraction speed 7.5 X
Track quality 100.0 %
Test CRC 68B743B7
Copy CRC 68B743B7
Track not present in AccurateRip database
Copy OK
None of the tracks are present in the AccurateRip database
No errors occurred
End of status report

CD 2

Exact Audio Copy V1.0 beta 3 from 29. August 2011
EAC extraction logfile from 10. July 2012, 8:20
Various Artists / All The ... 80's - CD2
Used drive  : ASUS    DRW-24B3ST   Adapter: 0  ID: 2
Read mode               : Secure
Utilize accurate stream : Yes
Defeat audio cache      : Yes
Make use of C2 pointers : No
Read offset correction                      : 6
Overread into Lead-In and Lead-Out          : No
Fill up missing offset samples with silence : Yes
Delete leading and trailing silent blocks   : No
Null samples used in CRC calculations       : Yes
Used interface                              : Native Win32 interface for Win NT & 2000
Gap handling                                : Appended to previous track
Used output format              : User Defined Encoder
Selected bitrate                : 1024 kBit/s
Quality                         : High
Add ID3 tag                     : No
Command line compressor         : C:\Program Files (x86)\Exact Audio Copy\Flac\flac.exe
Additional command line options : -8 -V -T "Artist=%artist%" -T "Title=%title%" -T "Album=%albumtitle%" -T "Date=%year%" -T "Tracknumber=%tracknr%" -T "Genre=%genre%" %source% -o %dest%
TOC of the extracted CD
Track |   Start  |  Length  | Start sector | End sector
---------------------------------------------------------
1  |  0:00.00 |  4:07.62 |         0    |    18586
2  |  4:07.62 |  4:01.58 |     18587    |    36719
3  |  8:09.45 |  5:47.61 |     36720    |    62805
4  | 13:57.31 |  3:37.04 |     62806    |    79084
5  | 17:34.35 |  2:41.30 |     79085    |    91189
6  | 20:15.65 |  3:35.45 |     91190    |   107359
7  | 23:51.35 |  4:23.06 |    107360    |   127090
8  | 28:14.41 |  3:02.66 |    127091    |   140806
9  | 31:17.32 |  2:46.31 |    140807    |   153287
10  | 34:03.63 |  5:47.74 |    153288    |   179386
11  | 39:51.62 |  3:38.16 |    179387    |   195752
12  | 43:30.03 |  4:12.07 |    195753    |   214659
13  | 47:42.10 |  4:27.35 |    214660    |   234719
14  | 52:09.45 |  4:18.05 |    234720    |   254074
15  | 56:27.50 |  3:56.11 |    254075    |   271785
16  | 60:23.61 |  3:26.27 |    271786    |   287262
Track  1
Filename E:\All The ... 80's - flac\CD2\01 - New Order - Blue Monday '88.wav
Pre-gap length  0:00:02.00
Peak level 96.6 %
Extraction speed 3.5 X
Track quality 100.0 %
Test CRC 25634CD9
Copy CRC 25634CD9
Track not present in AccurateRip database
Copy OK
Track  2
Filename E:\All The ... 80's - flac\CD2\02 - Blancmange - Living On The Ceiling.wav
Peak level 99.9 %
Extraction speed 3.9 X
Track quality 100.0 %
Test CRC 5B500CB6
Copy CRC 5B500CB6
Track not present in AccurateRip database
Copy OK
Track  3
Filename E:\All The ... 80's - flac\CD2\03 - Echo And The Bunnymen - The Killing Moon.wav
Peak level 100.0 %
Extraction speed 4.5 X
Track quality 100.0 %
Test CRC 05EEE960
Copy CRC 05EEE960
Track not present in AccurateRip database
Copy OK
Track  4
Filename E:\All The ... 80's - flac\CD2\04 - Models - Out Of Mind Out Of Sight.wav
Peak level 100.0 %
Extraction speed 4.6 X
Track quality 100.0 %
Test CRC 0CE8A27F
Copy CRC 0CE8A27F
Track not present in AccurateRip database
Copy OK
Track  5
Filename E:\All The ... 80's - flac\CD2\05 - Devo - Whip It.wav
Peak level 99.2 %
Extraction speed 4.6 X
Track quality 100.0 %
Test CRC 1DFE7390
Copy CRC 1DFE7390
Track not present in AccurateRip database
Copy OK
Track  6
Filename E:\All The ... 80's - flac\CD2\06 - Bananarama - Venus.wav
Peak level 99.7 %
Extraction speed 5.0 X
Track quality 100.0 %
Test CRC 1D1ADD07
Copy CRC 1D1ADD07
Track not present in AccurateRip database
Copy OK
Track  7
Filename E:\All The ... 80's - flac\CD2\07 - Communards With Sarah Jane Morris - Don't Leave Me This Way.wav
Peak level 100.0 %
Extraction speed 5.4 X
Track quality 100.0 %
Test CRC EE8166B4
Copy CRC EE8166B4
Track not present in AccurateRip database
Copy OK
Track  8
Filename E:\All The ... 80's - flac\CD2\08 - The Swingers - Counting The Beat.wav
Peak level 100.0 %
Extraction speed 5.3 X
Track quality 100.0 %
Test CRC E8A35E1A
Copy CRC E8A35E1A
Track not present in AccurateRip database
Copy OK
Track  9
Filename E:\All The ... 80's - flac\CD2\09 - Men Without Hats - The Safety Dance.wav
Peak level 99.9 %
Extraction speed 5.4 X
Track quality 100.0 %
Test CRC 84BA29CD
Copy CRC 84BA29CD
Track not present in AccurateRip database
Copy OK
Track 10
Filename E:\All The ... 80's - flac\CD2\10 - Chaka Khan - I Feel For You.wav
Peak level 100.0 %
Extraction speed 6.2 X
Track quality 100.0 %
Test CRC B6863407
Copy CRC B6863407
Track not present in AccurateRip database
Copy OK
Track 11
Filename E:\All The ... 80's - flac\CD2\11 - Bronski Beat - Hit That Perfect Beat.wav
Peak level 100.0 %
Extraction speed 6.2 X
Track quality 100.0 %
Test CRC 4B8F4501
Copy CRC 4B8F4501
Track not present in AccurateRip database
Copy OK
Track 12
Filename E:\All The ... 80's - flac\CD2\12 - Howard Jones - No One Is To Blame.wav
Peak level 100.0 %
Extraction speed 6.5 X
Track quality 100.0 %
Test CRC 700FC577
Copy CRC 700FC577
Track not present in AccurateRip database
Copy OK
Track 13
Filename E:\All The ... 80's - flac\CD2\13 - Shakespears Sister - You're History.wav
Peak level 100.0 %
Extraction speed 6.7 X
Track quality 100.0 %
Test CRC 94D01038
Copy CRC 94D01038
Track not present in AccurateRip database
Copy OK
Track 14
Filename E:\All The ... 80's - flac\CD2\14 - Sister Sledge - Frankie.wav
Peak level 100.0 %
Extraction speed 6.9 X
Track quality 100.0 %
Test CRC BDF13207
Copy CRC BDF13207
Track not present in AccurateRip database
Copy OK
Track 15
Filename E:\All The ... 80's - flac\CD2\15 - Jimmy Somerville - You Make Me Feel (mighty real).wav
Peak level 100.0 %
Extraction speed 7.0 X
Track quality 100.0 %
Test CRC 74818861
Copy CRC 74818861
Track not present in AccurateRip database
Copy OK
Track 16
Filename E:\All The ... 80's - flac\CD2\16 - Bangles - Walk Like An Egyptian.wav
Peak level 100.0 %
Extraction speed 7.0 X
Track quality 100.0 %
Test CRC 69529577
Copy CRC 69529577
Track not present in AccurateRip database
Copy OK
None of the tracks are present in the AccurateRip database
No errors occurred
End of status report

CD 3

Exact Audio Copy V1.0 beta 3 from 29. August 2011
EAC extraction logfile from 10. July 2012, 10:56
Various Artists / All The ... 80's - CD3
Used drive  : ASUS    DRW-24B3ST   Adapter: 0  ID: 2
Read mode               : Secure
Utilize accurate stream : Yes
Defeat audio cache      : Yes
Make use of C2 pointers : No
Read offset correction                      : 6
Overread into Lead-In and Lead-Out          : No
Fill up missing offset samples with silence : Yes
Delete leading and trailing silent blocks   : No
Null samples used in CRC calculations       : Yes
Used interface                              : Native Win32 interface for Win NT & 2000
Gap handling                                : Appended to previous track
Used output format              : User Defined Encoder
Selected bitrate                : 1024 kBit/s
Quality                         : High
Add ID3 tag                     : No
Command line compressor         : C:\Program Files (x86)\Exact Audio Copy\Flac\flac.exe
Additional command line options : -8 -V -T "Artist=%artist%" -T "Title=%title%" -T "Album=%albumtitle%" -T "Date=%year%" -T "Tracknumber=%tracknr%" -T "Genre=%genre%" %source% -o %dest%
TOC of the extracted CD
Track |   Start  |  Length  | Start sector | End sector
---------------------------------------------------------
1  |  0:00.00 |  4:03.40 |         0    |    18264
2  |  4:03.40 |  3:41.23 |     18265    |    34862
3  |  7:44.63 |  3:15.11 |     34863    |    49498
4  | 10:59.74 |  4:17.22 |     49499    |    68795
5  | 15:17.21 |  4:51.34 |     68796    |    90654
6  | 20:08.55 |  4:27.15 |     90655    |   110694
7  | 24:35.70 |  3:40.18 |    110695    |   127212
8  | 28:16.13 |  3:49.36 |    127213    |   144423
9  | 32:05.49 |  3:47.03 |    144424    |   161451
10  | 35:52.52 |  4:28.51 |    161452    |   181602
11  | 40:21.28 |  3:26.68 |    181603    |   197120
12  | 43:48.21 |  4:07.68 |    197121    |   215713
13  | 47:56.14 |  3:44.33 |    215714    |   232546
14  | 51:40.47 |  3:47.66 |    232547    |   249637
15  | 55:28.38 |  3:32.23 |    249638    |   265560
16  | 59:00.61 |  3:44.61 |    265561    |   282421
Track  1
Filename E:\All The ... 80's - flac\CD3\01 - K.C. & The Sunshine Band - Give It Up.wav
Pre-gap length  0:00:02.00
Peak level 99.9 %
Extraction speed 3.5 X
Track quality 100.0 %
Test CRC DB3E97F1
Copy CRC DB3E97F1
Track not present in AccurateRip database
Copy OK
Track  2
Filename E:\All The ... 80's - flac\CD3\02 - Olivia Newton-John - Physical.wav
Peak level 93.1 %
Extraction speed 3.8 X
Track quality 100.0 %
Test CRC 3105E1D1
Copy CRC 3105E1D1
Track not present in AccurateRip database
Copy OK
Track  3
Filename E:\All The ... 80's - flac\CD3\03 - Joey Scarbury - Believe It Or Not (theme from greatest american hero).wav
Peak level 100.0 %
Extraction speed 4.0 X
Track quality 100.0 %
Test CRC 457C34B6
Copy CRC 457C34B6
Track not present in AccurateRip database
Copy OK
Track  4
Filename E:\All The ... 80's - flac\CD3\04 - Chris Rea - Let's Dance.wav
Peak level 100.0 %
Extraction speed 3.7 X
Track quality 99.9 %
Test CRC 40CA36DD
Copy CRC 40CA36DD
Track not present in AccurateRip database
Copy OK
Track  5
Filename E:\All The ... 80's - flac\CD3\05 - Laura Branigan - Gloria.wav
Peak level 100.0 %
Extraction speed 4.9 X
Track quality 100.0 %
Test CRC 49014465
Copy CRC 49014465
Track not present in AccurateRip database
Copy OK
Track  6
Filename E:\All The ... 80's - flac\CD3\06 - Christopher Cross - Ride Like The Wind.wav
Peak level 99.9 %
Extraction speed 5.2 X
Track quality 100.0 %
Test CRC 30A83BBF
Copy CRC 30A83BBF
Track not present in AccurateRip database
Copy OK
Track  7
Filename E:\All The ... 80's - flac\CD3\07 - Leo Sayer - More Than I Can Say.wav
Peak level 100.0 %
Extraction speed 5.3 X
Track quality 100.0 %
Test CRC E5420643
Copy CRC E5420643
Track not present in AccurateRip database
Copy OK
Track  8
Filename E:\All The ... 80's - flac\CD3\08 - Mental As Anything - Live It Up.wav
Peak level 98.2 %
Extraction speed 5.6 X
Track quality 100.0 %
Test CRC D975DBD7
Copy CRC D975DBD7
Track not present in AccurateRip database
Copy OK
Track  9
Filename E:\All The ... 80's - flac\CD3\09 - Sabrina - Boys (summertime love).wav
Peak level 100.0 %
Extraction speed 4.5 X
Track quality 99.9 %
Test CRC 5E0322DD
Copy CRC 5E0322DD
Track not present in AccurateRip database
Copy OK
Track 10
Filename E:\All The ... 80's - flac\CD3\10 - Natalie Cole - Pink Cadillac.wav
Peak level 100.0 %
Extraction speed 6.2 X
Track quality 100.0 %
Test CRC B4DEE706
Copy CRC B4DEE706
Track not present in AccurateRip database
Copy OK
Track 11
Filename E:\All The ... 80's - flac\CD3\11 - Simply Red - If You Don't Know Me By Now.wav
Peak level 99.9 %
Extraction speed 6.1 X
Track quality 100.0 %
Test CRC 157034EC
Copy CRC 157034EC
Track not present in AccurateRip database
Copy OK
Track 12
Filename E:\All The ... 80's - flac\CD3\12 - Patrice Rushen - Forget Me Nots.wav
Peak level 100.0 %
Extraction speed 6.5 X
Track quality 100.0 %
Test CRC C87DD242
Copy CRC C87DD242
Track not present in AccurateRip database
Copy OK
Track 13
Filename E:\All The ... 80's - flac\CD3\13 - Sheila E - The Glamorous Life (part 1).wav
Peak level 99.9 %
Extraction speed 5.2 X
Track quality 99.9 %
Test CRC E9CC447B
Copy CRC E9CC447B
Track not present in AccurateRip database
Copy OK
Track 14
Filename E:\All The ... 80's - flac\CD3\14 - A-Ha - Take On Me.wav
Peak level 100.0 %
Extraction speed 6.7 X
Track quality 100.0 %
Test CRC E92A32D7
Copy CRC E92A32D7
Track not present in AccurateRip database
Copy OK
Track 15
Filename E:\All The ... 80's - flac\CD3\15 - Renee Geyer - Say I Love You.wav
Peak level 100.0 %
Extraction speed 6.9 X
Track quality 100.0 %
Test CRC D6F4C925
Copy CRC D6F4C925
Track not present in AccurateRip database
Copy OK
Track 16
Filename E:\All The ... 80's - flac\CD3\16 - George Benson - Give Me The Night.wav
Peak level 98.8 %
Extraction speed 7.1 X
Track quality 100.0 %
Test CRC 6D25439C
Copy CRC 6D25439C
Track not present in AccurateRip database
Copy OK
None of the tracks are present in the AccurateRip database
No errors occurred
End of status report

Индексная карта (non-compilant .cue)

CD 1

REM GENRE "Top 40"
REM DATE 2012
REM DISCID D80F4D11
REM COMMENT "ExactAudioCopy v1.0b3"
FILE "01 - Cold Chisel - Standing On The Outside.wav" WAVE
TRACK 01 AUDIO
INDEX 01 00:00:00
FILE "02 - ZZ Top - Legs.wav" WAVE
TRACK 02 AUDIO
INDEX 01 00:00:00
FILE "03 - Violent Femmes - Blister In The Sun.wav" WAVE
TRACK 03 AUDIO
INDEX 01 00:00:00
FILE "04 - Pretenders - Brass In Pocket.wav" WAVE
TRACK 04 AUDIO
INDEX 01 00:00:00
FILE "05 - The Steve Miller Band - Abracadabra.wav" WAVE
TRACK 05 AUDIO
INDEX 01 00:00:00
FILE "06 - Foreigner - I Want To Know What Love Is.wav" WAVE
TRACK 06 AUDIO
INDEX 01 00:00:00
FILE "07 - The Cars - Drive.wav" WAVE
TRACK 07 AUDIO
INDEX 01 00:00:00
FILE "08 - Yes - Owner Of A Lonely Heart.wav" WAVE
TRACK 08 AUDIO
INDEX 01 00:00:00
FILE "09 - The B-52's - Love Shack.wav" WAVE
TRACK 09 AUDIO
INDEX 01 00:00:00
FILE "10 - Fine Young Cannibals - She Drives Me Crazy.wav" WAVE
TRACK 10 AUDIO
INDEX 01 00:00:00
FILE "11 - Ian Moss - Tucker's Daughter.wav" WAVE
TRACK 11 AUDIO
INDEX 01 00:00:00
FILE "12 - Los Lobos - La Bamba.wav" WAVE
TRACK 12 AUDIO
INDEX 01 00:00:00
FILE "13 - David Lee Roth - California Girls.wav" WAVE
TRACK 13 AUDIO
INDEX 01 00:00:00
FILE "14 - Goanna - Solid Rock.wav" WAVE
TRACK 14 AUDIO
INDEX 01 00:00:00
FILE "15 - Choirboys - Run To Paradise.wav" WAVE
TRACK 15 AUDIO
INDEX 01 00:00:00
FILE "16 - The Beach Boys - Kokomo.wav" WAVE
TRACK 16 AUDIO
INDEX 01 00:00:00
FILE "17 - Chicago - Hard Habit To Break.wav" WAVE
TRACK 17 AUDIO
INDEX 01 00:00:00

CD 2

REM GENRE "Top 40"
REM DATE 2012
REM DISCID EE0EF610
REM COMMENT "ExactAudioCopy v1.0b3"
FILE "01 - New Order - Blue Monday '88.wav" WAVE
TRACK 01 AUDIO
INDEX 01 00:00:00
FILE "02 - Blancmange - Living On The Ceiling.wav" WAVE
TRACK 02 AUDIO
INDEX 01 00:00:00
FILE "03 - Echo And The Bunnymen - The Killing Moon.wav" WAVE
TRACK 03 AUDIO
INDEX 01 00:00:00
FILE "04 - Models - Out Of Mind Out Of Sight.wav" WAVE
TRACK 04 AUDIO
INDEX 01 00:00:00
FILE "05 - Devo - Whip It.wav" WAVE
TRACK 05 AUDIO
INDEX 01 00:00:00
FILE "06 - Bananarama - Venus.wav" WAVE
TRACK 06 AUDIO
INDEX 01 00:00:00
FILE "07 - Communards With Sarah Jane Morris - Don't Leave Me This Way.wav" WAVE
TRACK 07 AUDIO
INDEX 01 00:00:00
FILE "08 - The Swingers - Counting The Beat.wav" WAVE
TRACK 08 AUDIO
INDEX 01 00:00:00
FILE "09 - Men Without Hats - The Safety Dance.wav" WAVE
TRACK 09 AUDIO
INDEX 01 00:00:00
FILE "10 - Chaka Khan - I Feel For You.wav" WAVE
TRACK 10 AUDIO
INDEX 01 00:00:00
FILE "11 - Bronski Beat - Hit That Perfect Beat.wav" WAVE
TRACK 11 AUDIO
INDEX 01 00:00:00
FILE "12 - Howard Jones - No One Is To Blame.wav" WAVE
TRACK 12 AUDIO
INDEX 01 00:00:00
FILE "13 - Shakespears Sister - You're History.wav" WAVE
TRACK 13 AUDIO
INDEX 01 00:00:00
FILE "14 - Sister Sledge - Frankie.wav" WAVE
TRACK 14 AUDIO
INDEX 01 00:00:00
FILE "15 - Jimmy Somerville - You Make Me Feel (mighty real).wav" WAVE
TRACK 15 AUDIO
INDEX 01 00:00:00
FILE "16 - Bangles - Walk Like An Egyptian.wav" WAVE
TRACK 16 AUDIO
INDEX 01 00:00:00

CD 3

REM GENRE "Top 40"
REM DATE 2012
REM DISCID D70EB510
REM COMMENT "ExactAudioCopy v1.0b3"
FILE "01 - K.C. & The Sunshine Band - Give It Up.wav" WAVE
TRACK 01 AUDIO
INDEX 01 00:00:00
FILE "02 - Olivia Newton-John - Physical.wav" WAVE
TRACK 02 AUDIO
INDEX 01 00:00:00
FILE "03 - Joey Scarbury - Believe It Or Not (theme from greatest american hero).wav" WAVE
TRACK 03 AUDIO
INDEX 01 00:00:00
FILE "04 - Chris Rea - Let's Dance.wav" WAVE
TRACK 04 AUDIO
INDEX 01 00:00:00
FILE "05 - Laura Branigan - Gloria.wav" WAVE
TRACK 05 AUDIO
INDEX 01 00:00:00
FILE "06 - Christopher Cross - Ride Like The Wind.wav" WAVE
TRACK 06 AUDIO
INDEX 01 00:00:00
FILE "07 - Leo Sayer - More Than I Can Say.wav" WAVE
TRACK 07 AUDIO
INDEX 01 00:00:00
FILE "08 - Mental As Anything - Live It Up.wav" WAVE
TRACK 08 AUDIO
INDEX 01 00:00:00
FILE "09 - Sabrina - Boys (summertime love).wav" WAVE
TRACK 09 AUDIO
INDEX 01 00:00:00
FILE "10 - Natalie Cole - Pink Cadillac.wav" WAVE
TRACK 10 AUDIO
INDEX 01 00:00:00
FILE "11 - Simply Red - If You Don't Know Me By Now.wav" WAVE
TRACK 11 AUDIO
INDEX 01 00:00:00
FILE "12 - Patrice Rushen - Forget Me Nots.wav" WAVE
TRACK 12 AUDIO
INDEX 01 00:00:00
FILE "13 - Sheila E - The Glamorous Life (part 1).wav" WAVE
TRACK 13 AUDIO
INDEX 01 00:00:00
FILE "14 - A-Ha - Take On Me.wav" WAVE
TRACK 14 AUDIO
INDEX 01 00:00:00
FILE "15 - Renee Geyer - Say I Love You.wav" WAVE
TRACK 15 AUDIO
INDEX 01 00:00:00
FILE "16 - George Benson - Give Me The Night.wav" WAVE
TRACK 16 AUDIO
INDEX 01 00:00:00

Лог Audiochecker

CD 1

AUDIOCHECKER v2.0 beta (build 457) - by Dester - [email protected]
~~~~~~~~~~~~~~~~~~~~~~~~~~~~~~~~~~
-=== НЕ РЕДАКТИРУЙТЕ ЭТОТ ФАЙЛ! ===-
Путь: ...\CD1
01 -=- 01. Cold Chisel - Standing On The Outside.flac -=- CDDA (100%)
02 -=- 02. ZZ Top - Legs.flac -=- CDDA (100%)
03 -=- 03. Violent Femmes - Blister In The Sun.flac -=- CDDA (100%)
04 -=- 04. Pretenders - Brass In Pocket.flac -=- CDDA (100%)
05 -=- 05. The Steve Miller Band - Abracadabra.flac -=- CDDA (100%)
06 -=- 06. Foreigner - I Want To Know What Love Is.flac -=- CDDA (100%)
07 -=- 07. The Cars - Drive.flac -=- CDDA (100%)
08 -=- 08. Yes - Owner Of A Lonely Heart.flac -=- CDDA (100%)
09 -=- 09. The B-52's - Love Shack.flac -=- CDDA (99%)
10 -=- 10. Fine Young Cannibals - She Drives Me Crazy.flac -=- CDDA (100%)
11 -=- 11. Ian Moss - Tucker's Daughter.flac -=- CDDA (100%)
12 -=- 12. Los Lobos - La Bamba.flac -=- CDDA (100%)
13 -=- 13. David Lee Roth - California Girls.flac -=- CDDA (100%)
14 -=- 14. Goanna - Solid Rock.flac -=- CDDA (100%)
15 -=- 15. Choirboys - Run To Paradise.flac -=- CDDA (100%)
16 -=- 16. The Beach Boys - Kokomo.flac -=- CDDA (100%)
17 -=- 17. Chicago - Hard Habit To Break.flac -=- CDDA (100%)
Сводка 99,94% CDDA

CD 2

AUDIOCHECKER v2.0 beta (build 457) - by Dester - [email protected]
~~~~~~~~~~~~~~~~~~~~~~~~~~~~~~~~~~
-=== НЕ РЕДАКТИРУЙТЕ ЭТОТ ФАЙЛ! ===-
Путь: ...\CD2
01 -=- 01. New Order - Blue Monday '88.flac -=- CDDA (100%)
02 -=- 02. Blancmange - Living On The Ceiling.flac -=- CDDA (100%)
03 -=- 03. Echo And The Bunnymen - The Killing Moon.flac -=- CDDA (100%)
04 -=- 04. Models - Out Of Mind Out Of Sight.flac -=- CDDA (100%)
05 -=- 05. Devo - Whip It.flac -=- CDDA (100%)
06 -=- 06. Bananarama - Venus.flac -=- CDDA (100%)
07 -=- 07. Communards With Sarah Jane Morris - Don't Leave Me This Way.flac -=- ERROR
08 -=- 08. The Swingers - Counting The Beat.flac -=- CDDA (100%)
09 -=- 09. Men Without Hats - The Safety Dance.flac -=- CDDA (100%)
10 -=- 10. Chaka Khan - I Feel For You.flac -=- CDDA (100%)
11 -=- 11. Bronski Beat - Hit That Perfect Beat.flac -=- CDDA (100%)
12 -=- 12. Howard Jones - No One Is To Blame.flac -=- MPEG (79%)
13 -=- 13. Shakespears Sister - You're History.flac -=- CDDA (100%)
14 -=- 14. Sister Sledge - Frankie.flac -=- CDDA (100%)
15 -=- 15. Jimmy Somerville - You Make Me Feel (mighty real).flac -=- CDDA (100%)
16 -=- 16. Bangles - Walk Like An Egyptian.flac -=- CDDA (100%)
Сводка 94,73% CDDA

CD 3

AUDIOCHECKER v2.0 beta (build 457) - by Dester - [email protected]
~~~~~~~~~~~~~~~~~~~~~~~~~~~~~~~~~~
-=== НЕ РЕДАКТИРУЙТЕ ЭТОТ ФАЙЛ! ===-
Путь: ...\CD3
01 -=- 01. K.C. & The Sunshine Band - Give It Up.flac -=- CDDA (100%)
02 -=- 02. Olivia Newton-John - Physical.flac -=- CDDA (100%)
03 -=- 03. Joey Scarbury - Believe It Or Not (theme from greatest american hero).flac -=- CDDA (100%)
04 -=- 04. Chris Rea - Let's Dance.flac -=- CDDA (100%)
05 -=- 05. Laura Branigan - Gloria.flac -=- CDDA (100%)
06 -=- 06. Christopher Cross - Ride Like The Wind.flac -=- CDDA (99%)
07 -=- 07. Leo Sayer - More Than I Can Say.flac -=- CDDA (100%)
08 -=- 08. Mental As Anything - Live It Up.flac -=- CDDA (100%)
09 -=- 09. Sabrina - Boys (summertime love).flac -=- CDDA (100%)
10 -=- 10. Natalie Cole - Pink Cadillac.flac -=- CDDA (99%)
11 -=- 11. Simply Red - If You Don't Know Me By Now.flac -=- CDDA (100%)
12 -=- 12. Patrice Rushen - Forget Me Nots.flac -=- CDDA (100%)
13 -=- 13. Sheila E - The Glamorous Life (part 1).flac -=- CDDA (100%)
14 -=- 14. A-Ha - Take On Me.flac -=- CDDA (100%)
15 -=- 15. Renee Geyer - Say I Love You.flac -=- CDDA (100%)
16 -=- 16. George Benson - Give Me The Night.flac -=- CDDA (100%)
Сводка 99,88% CDDA

Скриншот спектра частот

--Не забываем говорить
Яндекс.Метрика
Рейтинг@Mail.ru