(Rock, Pop, R'n'B) VA - All The... 70's (3CD) - 2012 [FLAC, tracks+.cue, lossless]

 

Создавать темы 18-Фев-2015 17:32

-All The... 70's (3CD)-- Год издания: 2012
Страна: ---
Жанр: Rock, Pop, R'n'B
Продолжительность: 02:42:26-Лейбл издания: Warner Music
Тип альбома: Compilation
Страна-выпуска диска: USA
Номер по каталогу: 5310517252
Формат: FLAC
Битрейт аудио: lossless
Тип рипа: tracks+.cue
Наличие сканов в содержимом раздачи: front


Трэклист

CD 1 | 00:56:35

01. Foreigner - Feels Like The First Time (03:52)
02. The Doobie Brothers - What A Fool Believes (03:41)
03. Warren Zevon - Werewolves Of London (03:26)
04. Ian Dury And The Blockheads - Hit Me With Your Rhythm Stick (03:44)
05. Gary Glitter - Rock & Roll (part 1) (03:00)
06. Faces - Stay With Me (04:41)
07. Carly Simon - You're So Vain (04:17)
08. Harry Chapin - Cat's In The Cradle (03:47)
09. The Cars - Let's Go (03:35)
10. Skyhooks - Horror Movie (03:48)
11. Ol' 55 - On The Prowl (03:01)
12. Richard Clapton - Girls On The Avenue (03:13)
13. Pretenders - Kid (03:06)
14. David Dundas - Jeans On (03:21)
15. Billy Thorpe - Most People I Know Think That I'm Crazy (06:10)

CD 2 | 00:55:14

01. Patrick Hernandez - Born To Be Alive (03:36)
02. Norman Greenbaum - Spirit In The Sky (04:00)
03. Carole Bayer Sager - You're Moving Out Today (03:32)
04. Anita Ward - Ring My Bell (03:18)
05. La Belle Epoque - Black Is Black (04:11)
06. Barry Blue - Dancing On A Saturday Night (03:13)
07. Sister Sledge - We Are Family (03:25)
08. Chic - Le Freak (05:30)
09. Chaka Khan - I'm Every Woman (04:06)
10. Manhattan Transfer - Chanson D'Armour (02:55)
11. Olivia Newton-John - If Not For You (02:53)
12. Linda Ronstadt - Blue Bayou (03:53)
13. The Spinners - I'll Be Around (03:12)
14. Lobo - I'd Love You To Want Me (04:01)
15. Bette Midler - The Rose (03:34)

CD 3 | 00:50:39

01. Chicago - If You Leave Me Know (03:54)
02. Leo Sayer - The Show Must Go On (03:35)
03. Bread - Make It With You (03:12)
04. David Soul - Don't Give Up On Us (03:39)
05. Sherbet - Cassandra (03:18)
06. Hot Butter - Popcorn (02:34)
07. Lieutenant Pigeon - Mouldy Old Dough (02:42)
08. Pussyfoot - The Way You Do It (03:09)
09. Fox - S-S-S-Single Bed (03:51)
10. Ronnie Burns - Smiley (03:30)
11. Seals And Crofts - Summer Breeze (03:25)
12. The Four Seasons - December 1963 (oh what a night) (03:18)
13. Aretha Franklin - Spanish Harlem (03:31)
14. Judy Collins - Amazing Grace (03:50)
15. The New Seekers - You Won't Find Another Fool Like Me (03:19)

Лог создания рипа

CD 1

Exact Audio Copy V1.0 beta 3 from 29. August 2011
EAC extraction logfile from 8. July 2012, 19:10
Various Artists / All The ... 70's - CD1
Used drive  : ASUS    DRW-24B3ST   Adapter: 0  ID: 2
Read mode               : Secure
Utilize accurate stream : Yes
Defeat audio cache      : Yes
Make use of C2 pointers : No
Read offset correction                      : 6
Overread into Lead-In and Lead-Out          : No
Fill up missing offset samples with silence : Yes
Delete leading and trailing silent blocks   : No
Null samples used in CRC calculations       : Yes
Used interface                              : Native Win32 interface for Win NT & 2000
Gap handling                                : Appended to previous track
Used output format              : User Defined Encoder
Selected bitrate                : 1024 kBit/s
Quality                         : High
Add ID3 tag                     : No
Command line compressor         : C:\Program Files (x86)\Exact Audio Copy\Flac\flac.exe
Additional command line options : -8 -V -T "Artist=%artist%" -T "Title=%title%" -T "Album=%albumtitle%" -T "Date=%year%" -T "Tracknumber=%tracknr%" -T "Genre=%genre%" %source% -o %dest%
TOC of the extracted CD
Track |   Start  |  Length  | Start sector | End sector
---------------------------------------------------------
1  |  0:00.00 |  3:51.36 |         0    |    17360
2  |  3:51.36 |  3:40.33 |     17361    |    33893
3  |  7:31.69 |  3:25.71 |     33894    |    49339
4  | 10:57.65 |  3:43.50 |     49340    |    66114
5  | 14:41.40 |  2:59.25 |     66115    |    79564
6  | 17:40.65 |  4:40.03 |     79565    |   100567
7  | 22:20.68 |  4:16.55 |    100568    |   119822
8  | 26:37.48 |  3:46.13 |    119823    |   136785
9  | 30:23.61 |  3:34.40 |    136786    |   152875
10  | 33:58.26 |  3:48.00 |    152876    |   169975
11  | 37:46.26 |  3:00.54 |    169976    |   183529
12  | 40:47.05 |  3:12.50 |    183530    |   197979
13  | 43:59.55 |  3:05.25 |    197980    |   211879
14  | 47:05.05 |  3:20.22 |    211880    |   226901
15  | 50:25.27 |  6:09.21 |    226902    |   254597
Track  1
Filename E:\All The ... 70's - flac\CD1\01 - Foreigner - Feels Like The First Time.wav
Pre-gap length  0:00:02.00
Peak level 98.0 %
Extraction speed 3.4 X
Track quality 100.0 %
Test CRC F4AA7862
Copy CRC F4AA7862
Track not present in AccurateRip database
Copy OK
Track  2
Filename E:\All The ... 70's - flac\CD1\02 - The Doobie Brothers - What A Fool Believes.wav
Peak level 97.9 %
Extraction speed 3.0 X
Track quality 99.9 %
Test CRC 99695240
Copy CRC 99695240
Track not present in AccurateRip database
Copy OK
Track  3
Filename E:\All The ... 70's - flac\CD1\03 - Warren Zevon - Werewolves Of London.wav
Peak level 98.0 %
Extraction speed 4.0 X
Track quality 100.0 %
Test CRC 0B147001
Copy CRC 0B147001
Track not present in AccurateRip database
Copy OK
Track  4
Filename E:\All The ... 70's - flac\CD1\04 - Ian Dury And The Blockheads - Hit Me With Your Rhythm Stick.wav
Peak level 98.0 %
Extraction speed 4.4 X
Track quality 100.0 %
Test CRC 5CDFCCEE
Copy CRC 5CDFCCEE
Track not present in AccurateRip database
Copy OK
Track  5
Filename E:\All The ... 70's - flac\CD1\05 - Gary Glitter - Rock & Roll (part 1).wav
Peak level 98.0 %
Extraction speed 4.5 X
Track quality 100.0 %
Test CRC 374AF962
Copy CRC 374AF962
Track not present in AccurateRip database
Copy OK
Track  6
Filename E:\All The ... 70's - flac\CD1\06 - Faces - Stay With Me.wav
Peak level 98.0 %
Extraction speed 5.0 X
Track quality 100.0 %
Test CRC 9383E322
Copy CRC 9383E322
Track not present in AccurateRip database
Copy OK
Track  7
Filename E:\All The ... 70's - flac\CD1\07 - Carly Simon - You're So Vain.wav
Peak level 98.0 %
Extraction speed 5.3 X
Track quality 100.0 %
Test CRC 8A4FAE43
Copy CRC 8A4FAE43
Track not present in AccurateRip database
Copy OK
Track  8
Filename E:\All The ... 70's - flac\CD1\08 - Harry Chapin - Cat's In The Cradle.wav
Peak level 98.0 %
Extraction speed 5.4 X
Track quality 100.0 %
Test CRC ECBA7C36
Copy CRC ECBA7C36
Track not present in AccurateRip database
Copy OK
Track  9
Filename E:\All The ... 70's - flac\CD1\09 - The Cars - Let's Go.wav
Peak level 98.0 %
Extraction speed 5.6 X
Track quality 100.0 %
Test CRC 60863616
Copy CRC 60863616
Track not present in AccurateRip database
Copy OK
Track 10
Filename E:\All The ... 70's - flac\CD1\10 - Skyhooks - Horror Movie.wav
Peak level 98.0 %
Extraction speed 5.8 X
Track quality 100.0 %
Test CRC E48BA75D
Copy CRC E48BA75D
Track not present in AccurateRip database
Copy OK
Track 11
Filename E:\All The ... 70's - flac\CD1\11 - Ol' 55 - On The Prowl.wav
Peak level 98.0 %
Extraction speed 5.9 X
Track quality 100.0 %
Test CRC 2429FEB4
Copy CRC 2429FEB4
Track not present in AccurateRip database
Copy OK
Track 12
Filename E:\All The ... 70's - flac\CD1\12 - Richard Clapton - Girls On The Avenue.wav
Peak level 98.0 %
Extraction speed 6.1 X
Track quality 100.0 %
Test CRC 2160E446
Copy CRC 2160E446
Track not present in AccurateRip database
Copy OK
Track 13
Filename E:\All The ... 70's - flac\CD1\13 - Pretenders - Kid.wav
Peak level 97.8 %
Extraction speed 6.2 X
Track quality 100.0 %
Test CRC 40E64F34
Copy CRC 40E64F34
Track not present in AccurateRip database
Copy OK
Track 14
Filename E:\All The ... 70's - flac\CD1\14 - David Dundas - Jeans On.wav
Peak level 97.9 %
Extraction speed 6.4 X
Track quality 100.0 %
Test CRC E3C3230C
Copy CRC E3C3230C
Track not present in AccurateRip database
Copy OK
Track 15
Filename E:\All The ... 70's - flac\CD1\15 - Billy Thorpe - Most People I Know Think That I'm Crazy.wav
Peak level 98.0 %
Extraction speed 7.2 X
Track quality 100.0 %
Test CRC 829C22E6
Copy CRC 829C22E6
Track not present in AccurateRip database
Copy OK
None of the tracks are present in the AccurateRip database
No errors occurred
End of status report

CD 2

Exact Audio Copy V1.0 beta 3 from 29. August 2011
EAC extraction logfile from 8. July 2012, 20:51
Various Artists / All The ... 70's - CD2
Used drive  : ASUS    DRW-24B3ST   Adapter: 0  ID: 2
Read mode               : Secure
Utilize accurate stream : Yes
Defeat audio cache      : Yes
Make use of C2 pointers : No
Read offset correction                      : 6
Overread into Lead-In and Lead-Out          : No
Fill up missing offset samples with silence : Yes
Delete leading and trailing silent blocks   : No
Null samples used in CRC calculations       : Yes
Used interface                              : Native Win32 interface for Win NT & 2000
Gap handling                                : Appended to previous track
Used output format              : User Defined Encoder
Selected bitrate                : 1024 kBit/s
Quality                         : High
Add ID3 tag                     : No
Command line compressor         : C:\Program Files (x86)\Exact Audio Copy\Flac\flac.exe
Additional command line options : -8 -V -T "Artist=%artist%" -T "Title=%title%" -T "Album=%albumtitle%" -T "Date=%year%" -T "Tracknumber=%tracknr%" -T "Genre=%genre%" %source% -o %dest%
TOC of the extracted CD
Track |   Start  |  Length  | Start sector | End sector
---------------------------------------------------------
1  |  0:00.00 |  3:35.56 |         0    |    16180
2  |  3:35.56 |  3:59.65 |     16181    |    34170
3  |  7:35.46 |  3:31.71 |     34171    |    50066
4  | 11:07.42 |  3:17.01 |     50067    |    64842
5  | 14:24.43 |  4:10.48 |     64843    |    83640
6  | 18:35.16 |  3:12.21 |     83641    |    98061
7  | 21:47.37 |  3:24.36 |     98062    |   113397
8  | 25:11.73 |  5:29.17 |    113398    |   138089
9  | 30:41.15 |  4:05.58 |    138090    |   156522
10  | 34:46.73 |  2:54.67 |    156523    |   169639
11  | 37:41.65 |  2:52.25 |    169640    |   182564
12  | 40:34.15 |  3:52.72 |    182565    |   200036
13  | 44:27.12 |  3:11.31 |    200037    |   214392
14  | 47:38.43 |  4:00.37 |    214393    |   232429
15  | 51:39.05 |  3:33.74 |    232430    |   248478
Track  1
Filename E:\All The ... 70's - flac\CD2\01 - Patrick Hernandez - Born To Be Alive.wav
Pre-gap length  0:00:02.00
Peak level 98.0 %
Extraction speed 3.4 X
Track quality 100.0 %
Test CRC 5A6E1217
Copy CRC 5A6E1217
Track not present in AccurateRip database
Copy OK
Track  2
Filename E:\All The ... 70's - flac\CD2\02 - Norman Greenbaum - Spirit In The Sky.wav
Peak level 98.0 %
Extraction speed 3.8 X
Track quality 100.0 %
Test CRC F1A6D032
Copy CRC F1A6D032
Track not present in AccurateRip database
Copy OK
Track  3
Filename E:\All The ... 70's - flac\CD2\03 - Carole Bayer Sager - You're Moving Out Today.wav
Peak level 98.0 %
Extraction speed 4.1 X
Track quality 100.0 %
Test CRC FF1A62E6
Copy CRC FF1A62E6
Track not present in AccurateRip database
Copy OK
Track  4
Filename E:\All The ... 70's - flac\CD2\04 - Anita Ward - Ring My Bell.wav
Peak level 98.0 %
Extraction speed 4.3 X
Track quality 100.0 %
Test CRC 5B263CAC
Copy CRC 5B263CAC
Track not present in AccurateRip database
Copy OK
Track  5
Filename E:\All The ... 70's - flac\CD2\05 - La Belle Epoque - Black Is Black.wav
Peak level 98.0 %
Extraction speed 3.8 X
Track quality 99.9 %
Test CRC 2D12886B
Copy CRC 2D12886B
Track not present in AccurateRip database
Copy OK
Track  6
Filename E:\All The ... 70's - flac\CD2\06 - Barry Blue - Dancing On A Saturday Night.wav
Peak level 98.0 %
Extraction speed 4.8 X
Track quality 100.0 %
Test CRC 984F081C
Copy CRC 984F081C
Track not present in AccurateRip database
Copy OK
Track  7
Filename E:\All The ... 70's - flac\CD2\07 - Sister Sledge - We Are Family.wav
Peak level 98.0 %
Extraction speed 4.0 X
Track quality 99.9 %
Test CRC 1D5BD82A
Copy CRC 1D5BD82A
Track not present in AccurateRip database
Copy OK
Track  8
Filename E:\All The ... 70's - flac\CD2\08 - Chic - Le Freak.wav
Peak level 98.0 %
Extraction speed 5.7 X
Track quality 100.0 %
Test CRC 9C32150A
Copy CRC 9C32150A
Track not present in AccurateRip database
Copy OK
Track  9
Filename E:\All The ... 70's - flac\CD2\09 - Chaka Khan - I'm Every Woman.wav
Peak level 98.0 %
Extraction speed 5.8 X
Track quality 100.0 %
Test CRC 47C6F863
Copy CRC 47C6F863
Track not present in AccurateRip database
Copy OK
Track 10
Filename E:\All The ... 70's - flac\CD2\10 - Manhattan Transfer - Chanson D'Armour.wav
Peak level 98.0 %
Extraction speed 5.6 X
Track quality 100.0 %
Test CRC DF57307B
Copy CRC DF57307B
Track not present in AccurateRip database
Copy OK
Track 11
Filename E:\All The ... 70's - flac\CD2\11 - Olivia Newton-John - If Not For You.wav
Peak level 98.0 %
Extraction speed 4.3 X
Track quality 99.9 %
Test CRC 1C3DFF62
Copy CRC 1C3DFF62
Track not present in AccurateRip database
Copy OK
Track 12
Filename E:\All The ... 70's - flac\CD2\12 - Linda Ronstadt - Blue Bayou.wav
Peak level 98.0 %
Extraction speed 6.2 X
Track quality 100.0 %
Test CRC 24504A1A
Copy CRC 24504A1A
Track not present in AccurateRip database
Copy OK
Track 13
Filename E:\All The ... 70's - flac\CD2\13 - The Spinners - I'll Be Around.wav
Peak level 98.0 %
Extraction speed 6.3 X
Track quality 100.0 %
Test CRC F38BFCF4
Copy CRC F38BFCF4
Track not present in AccurateRip database
Copy OK
Track 14
Filename E:\All The ... 70's - flac\CD2\14 - Lobo - I'd Love You To Want Me.wav
Peak level 98.0 %
Extraction speed 6.6 X
Track quality 100.0 %
Test CRC 6E3A0FD9
Copy CRC 6E3A0FD9
Track not present in AccurateRip database
Copy OK
Track 15
Filename E:\All The ... 70's - flac\CD2\15 - Bette Midler - The Rose.wav
Peak level 98.0 %
Extraction speed 6.7 X
Track quality 100.0 %
Test CRC 4E02EAD6
Copy CRC 4E02EAD6
Track not present in AccurateRip database
Copy OK
None of the tracks are present in the AccurateRip database
No errors occurred
End of status report

CD 3

Exact Audio Copy V1.0 beta 3 from 29. August 2011
EAC extraction logfile from 9. July 2012, 10:02
Various Artists / All The ... 70's - CD3
Used drive  : ASUS    DRW-24B3ST   Adapter: 0  ID: 2
Read mode               : Secure
Utilize accurate stream : Yes
Defeat audio cache      : Yes
Make use of C2 pointers : No
Read offset correction                      : 6
Overread into Lead-In and Lead-Out          : No
Fill up missing offset samples with silence : Yes
Delete leading and trailing silent blocks   : No
Null samples used in CRC calculations       : Yes
Used interface                              : Native Win32 interface for Win NT & 2000
Gap handling                                : Appended to previous track
Used output format              : User Defined Encoder
Selected bitrate                : 1024 kBit/s
Quality                         : High
Add ID3 tag                     : No
Command line compressor         : C:\Program Files (x86)\Exact Audio Copy\Flac\flac.exe
Additional command line options : -8 -V -T "Artist=%artist%" -T "Title=%title%" -T "Album=%albumtitle%" -T "Date=%year%" -T "Tracknumber=%tracknr%" -T "Genre=%genre%" %source% -o %dest%
TOC of the extracted CD
Track |   Start  |  Length  | Start sector | End sector
---------------------------------------------------------
1  |  0:00.00 |  3:53.28 |         0    |    17502
2  |  3:53.28 |  3:34.35 |     17503    |    33587
3  |  7:27.63 |  3:11.30 |     33588    |    47942
4  | 10:39.18 |  3:38.07 |     47943    |    64299
5  | 14:17.25 |  3:17.10 |     64300    |    79084
6  | 17:34.35 |  2:33.31 |     79085    |    90590
7  | 20:07.66 |  2:41.33 |     90591    |   102698
8  | 22:49.24 |  3:08.72 |    102699    |   116870
9  | 25:58.21 |  3:50.18 |    116871    |   134138
10  | 29:48.39 |  3:29.03 |    134139    |   149816
11  | 33:17.42 |  3:24.01 |    149817    |   165117
12  | 36:41.43 |  3:17.40 |    165118    |   179932
13  | 39:59.08 |  3:30.55 |    179933    |   195737
14  | 43:29.63 |  3:49.60 |    195738    |   212972
15  | 47:19.48 |  3:18.48 |    212973    |   227870
Track  1
Filename E:\All The ... 70's - flac\CD3\01 - Chicago - If You Leave Me Know.wav
Pre-gap length  0:00:02.00
Peak level 98.0 %
Extraction speed 1.3 X
Track quality 99.9 %
Test CRC 0E2F8481
Copy CRC 0E2F8481
Track not present in AccurateRip database
Copy OK
Track  2
Filename E:\All The ... 70's - flac\CD3\02 - Leo Sayer - The Show Must Go On.wav
Peak level 98.0 %
Extraction speed 1.4 X
Track quality 99.9 %
Test CRC BBD7B55A
Copy CRC BBD7B55A
Track not present in AccurateRip database
Copy OK
Track  3
Filename E:\All The ... 70's - flac\CD3\03 - Bread - Make It With You.wav
Peak level 98.0 %
Extraction speed 2.1 X
Track quality 100.0 %
Test CRC E6BC3209
Copy CRC E6BC3209
Track not present in AccurateRip database
Copy OK
Track  4
Filename E:\All The ... 70's - flac\CD3\04 - David Soul - Don't Give Up On Us.wav
Peak level 98.0 %
Extraction speed 1.7 X
Track quality 99.9 %
Test CRC 771DAC0D
Copy CRC 771DAC0D
Track not present in AccurateRip database
Copy OK
Track  5
Filename E:\All The ... 70's - flac\CD3\05 - Sherbet - Cassandra.wav
Peak level 98.0 %
Extraction speed 2.4 X
Track quality 100.0 %
Test CRC 3D10C3DD
Copy CRC 3D10C3DD
Track not present in AccurateRip database
Copy OK
Track  6
Filename E:\All The ... 70's - flac\CD3\06 - Hot Butter - Popcorn.wav
Peak level 98.0 %
Extraction speed 2.4 X
Track quality 100.0 %
Test CRC E4079D50
Copy CRC E4079D50
Track not present in AccurateRip database
Copy OK
Track  7
Filename E:\All The ... 70's - flac\CD3\07 - Lieutenant Pigeon - Mouldy Old Dough.wav
Peak level 98.0 %
Extraction speed 2.5 X
Track quality 100.0 %
Test CRC 77BA1548
Copy CRC 77BA1548
Track not present in AccurateRip database
Copy OK
Track  8
Filename E:\All The ... 70's - flac\CD3\08 - Pussyfoot - The Way You Do It.wav
Peak level 98.0 %
Extraction speed 2.7 X
Track quality 100.0 %
Test CRC AB0FE5B7
Copy CRC AB0FE5B7
Track not present in AccurateRip database
Copy OK
Track  9
Filename E:\All The ... 70's - flac\CD3\09 - Fox - S-S-S-Single Bed.wav
Peak level 98.0 %
Extraction speed 2.9 X
Track quality 100.0 %
Test CRC 440DDD9D
Copy CRC 440DDD9D
Track not present in AccurateRip database
Copy OK
Track 10
Filename E:\All The ... 70's - flac\CD3\10 - Ronnie Burns - Smiley.wav
Peak level 98.0 %
Extraction speed 3.0 X
Track quality 100.0 %
Test CRC AEF882CB
Copy CRC AEF882CB
Track not present in AccurateRip database
Copy OK
Track 11
Filename E:\All The ... 70's - flac\CD3\11 - Seals And Crofts - Summer Breeze.wav
Peak level 98.0 %
Extraction speed 3.1 X
Track quality 100.0 %
Test CRC B65BDAE0
Copy CRC B65BDAE0
Track not present in AccurateRip database
Copy OK
Track 12
Filename E:\All The ... 70's - flac\CD3\12 - The Four Seasons - December 1963 (oh what a night).wav
Peak level 98.0 %
Extraction speed 2.1 X
Track quality 99.9 %
Test CRC 54D43CA2
Copy CRC 54D43CA2
Track not present in AccurateRip database
Copy OK
Track 13
Filename E:\All The ... 70's - flac\CD3\13 - Aretha Franklin - Spanish Harlem.wav
Peak level 98.0 %
Extraction speed 3.3 X
Track quality 100.0 %
Test CRC F8452211
Copy CRC F8452211
Track not present in AccurateRip database
Copy OK
Track 14
Filename E:\All The ... 70's - flac\CD3\14 - Judy Collins - Amazing Grace.wav
Peak level 98.0 %
Extraction speed 3.4 X
Track quality 100.0 %
Test CRC A1265BA8
Copy CRC A1265BA8
Track not present in AccurateRip database
Copy OK
Track 15
Filename E:\All The ... 70's - flac\CD3\15 - The New Seekers - You Won't Find Another Fool Like Me.wav
Peak level 97.9 %
Extraction speed 3.5 X
Track quality 100.0 %
Test CRC 7E1D3BF1
Copy CRC 7E1D3BF1
Track not present in AccurateRip database
Copy OK
None of the tracks are present in the AccurateRip database
No errors occurred
End of status report

Индексная карта (non-compilant .cue)

CD 1

REM GENRE "Top 40"
REM DATE 2012
REM DISCID CF0D420F
REM COMMENT "ExactAudioCopy v1.0b3"
FILE "01 - Foreigner - Feels Like The First Time.wav" WAVE
TRACK 01 AUDIO
INDEX 01 00:00:00
FILE "02 - The Doobie Brothers - What A Fool Believes.wav" WAVE
TRACK 02 AUDIO
INDEX 01 00:00:00
FILE "03 - Warren Zevon - Werewolves Of London.wav" WAVE
TRACK 03 AUDIO
INDEX 01 00:00:00
FILE "04 - Ian Dury And The Blockheads - Hit Me With Your Rhythm Stick.wav" WAVE
TRACK 04 AUDIO
INDEX 01 00:00:00
FILE "05 - Gary Glitter - Rock & Roll (part 1).wav" WAVE
TRACK 05 AUDIO
INDEX 01 00:00:00
FILE "06 - Faces - Stay With Me.wav" WAVE
TRACK 06 AUDIO
INDEX 01 00:00:00
FILE "07 - Carly Simon - You're So Vain.wav" WAVE
TRACK 07 AUDIO
INDEX 01 00:00:00
FILE "08 - Harry Chapin - Cat's In The Cradle.wav" WAVE
TRACK 08 AUDIO
INDEX 01 00:00:00
FILE "09 - The Cars - Let's Go.wav" WAVE
TRACK 09 AUDIO
INDEX 01 00:00:00
FILE "10 - Skyhooks - Horror Movie.wav" WAVE
TRACK 10 AUDIO
INDEX 01 00:00:00
FILE "11 - Ol' 55 - On The Prowl.wav" WAVE
TRACK 11 AUDIO
INDEX 01 00:00:00
FILE "12 - Richard Clapton - Girls On The Avenue.wav" WAVE
TRACK 12 AUDIO
INDEX 01 00:00:00
FILE "13 - Pretenders - Kid.wav" WAVE
TRACK 13 AUDIO
INDEX 01 00:00:00
FILE "14 - David Dundas - Jeans On.wav" WAVE
TRACK 14 AUDIO
INDEX 01 00:00:00
FILE "15 - Billy Thorpe - Most People I Know Think That I'm Crazy.wav" WAVE
TRACK 15 AUDIO
INDEX 01 00:00:00

CD 2

REM GENRE "Top 40"
REM DATE 2012
REM DISCID D00CF10F
REM COMMENT "ExactAudioCopy v1.0b3"
FILE "01 - Patrick Hernandez - Born To Be Alive.wav" WAVE
TRACK 01 AUDIO
INDEX 01 00:00:00
FILE "02 - Norman Greenbaum - Spirit In The Sky.wav" WAVE
TRACK 02 AUDIO
INDEX 01 00:00:00
FILE "03 - Carole Bayer Sager - You're Moving Out Today.wav" WAVE
TRACK 03 AUDIO
INDEX 01 00:00:00
FILE "04 - Anita Ward - Ring My Bell.wav" WAVE
TRACK 04 AUDIO
INDEX 01 00:00:00
FILE "05 - La Belle Epoque - Black Is Black.wav" WAVE
TRACK 05 AUDIO
INDEX 01 00:00:00
FILE "06 - Barry Blue - Dancing On A Saturday Night.wav" WAVE
TRACK 06 AUDIO
INDEX 01 00:00:00
FILE "07 - Sister Sledge - We Are Family.wav" WAVE
TRACK 07 AUDIO
INDEX 01 00:00:00
FILE "08 - Chic - Le Freak.wav" WAVE
TRACK 08 AUDIO
INDEX 01 00:00:00
FILE "09 - Chaka Khan - I'm Every Woman.wav" WAVE
TRACK 09 AUDIO
INDEX 01 00:00:00
FILE "10 - Manhattan Transfer - Chanson D'Armour.wav" WAVE
TRACK 10 AUDIO
INDEX 01 00:00:00
FILE "11 - Olivia Newton-John - If Not For You.wav" WAVE
TRACK 11 AUDIO
INDEX 01 00:00:00
FILE "12 - Linda Ronstadt - Blue Bayou.wav" WAVE
TRACK 12 AUDIO
INDEX 01 00:00:00
FILE "13 - The Spinners - I'll Be Around.wav" WAVE
TRACK 13 AUDIO
INDEX 01 00:00:00
FILE "14 - Lobo - I'd Love You To Want Me.wav" WAVE
TRACK 14 AUDIO
INDEX 01 00:00:00
FILE "15 - Bette Midler - The Rose.wav" WAVE
TRACK 15 AUDIO
INDEX 01 00:00:00

CD 3

REM GENRE "Top 40"
REM DATE 2012
REM DISCID C20BDE0F
REM COMMENT "ExactAudioCopy v1.0b3"
FILE "01 - Chicago - If You Leave Me Know.wav" WAVE
TRACK 01 AUDIO
INDEX 01 00:00:00
FILE "02 - Leo Sayer - The Show Must Go On.wav" WAVE
TRACK 02 AUDIO
INDEX 01 00:00:00
FILE "03 - Bread - Make It With You.wav" WAVE
TRACK 03 AUDIO
INDEX 01 00:00:00
FILE "04 - David Soul - Don't Give Up On Us.wav" WAVE
TRACK 04 AUDIO
INDEX 01 00:00:00
FILE "05 - Sherbet - Cassandra.wav" WAVE
TRACK 05 AUDIO
INDEX 01 00:00:00
FILE "06 - Hot Butter - Popcorn.wav" WAVE
TRACK 06 AUDIO
INDEX 01 00:00:00
FILE "07 - Lieutenant Pigeon - Mouldy Old Dough.wav" WAVE
TRACK 07 AUDIO
INDEX 01 00:00:00
FILE "08 - Pussyfoot - The Way You Do It.wav" WAVE
TRACK 08 AUDIO
INDEX 01 00:00:00
FILE "09 - Fox - S-S-S-Single Bed.wav" WAVE
TRACK 09 AUDIO
INDEX 01 00:00:00
FILE "10 - Ronnie Burns - Smiley.wav" WAVE
TRACK 10 AUDIO
INDEX 01 00:00:00
FILE "11 - Seals And Crofts - Summer Breeze.wav" WAVE
TRACK 11 AUDIO
INDEX 01 00:00:00
FILE "12 - The Four Seasons - December 1963 (oh what a night).wav" WAVE
TRACK 12 AUDIO
INDEX 01 00:00:00
FILE "13 - Aretha Franklin - Spanish Harlem.wav" WAVE
TRACK 13 AUDIO
INDEX 01 00:00:00
FILE "14 - Judy Collins - Amazing Grace.wav" WAVE
TRACK 14 AUDIO
INDEX 01 00:00:00
FILE "15 - The New Seekers - You Won't Find Another Fool Like Me.wav" WAVE
TRACK 15 AUDIO
INDEX 01 00:00:00

Лог Audiochecker

CD 1

AUDIOCHECKER v2.0 beta (build 457) - by Dester - [email protected]
~~~~~~~~~~~~~~~~~~~~~~~~~~~~~~~~~~
-=== НЕ РЕДАКТИРУЙТЕ ЭТОТ ФАЙЛ! ===-
Путь: ...\CD1
001 -=- 01. Foreigner - Feels Like The First Time.flac -=- CDDA (100%)
002 -=- 02. The Doobie Brothers - What A Fool Believes.flac -=- CDDA (100%)
003 -=- 03. Warren Zevon - Werewolves Of London.flac -=- CDDA (100%)
004 -=- 04. Ian Dury And The Blockheads - Hit Me With Your Rhythm Stick.flac -=- CDDA (94%)
005 -=- 05. Gary Glitter - Rock & Roll (part 1).flac -=- CDDA (99%)
006 -=- 06. Faces - Stay With Me.flac -=- CDDA (100%)
007 -=- 07. Carly Simon - You're So Vain.flac -=- CDDA (100%)
008 -=- 08. Harry Chapin - Cat's In The Cradle.flac -=- MPEG (93%)
009 -=- 09. The Cars - Let's Go.flac -=- CDDA (100%)
010 -=- 10. Skyhooks - Horror Movie.flac -=- CDDA (100%)
011 -=- 11. Ol' 55 - On The Prowl.flac -=- CDDA (100%)
012 -=- 12. Richard Clapton - Girls On The Avenue.flac -=- CDDA (100%)
013 -=- 13. Pretenders - Kid.flac -=- CDDA (100%)
014 -=- 14. David Dundas - Jeans On.flac -=- CDDA (100%)
015 -=- 15. Billy Thorpe - Most People I Know Think That I'm Crazy.flac -=- CDDA (100%)
Сводка 93,33% CDDA

CD 2

AUDIOCHECKER v2.0 beta (build 457) - by Dester - [email protected]
~~~~~~~~~~~~~~~~~~~~~~~~~~~~~~~~~~
-=== НЕ РЕДАКТИРУЙТЕ ЭТОТ ФАЙЛ! ===-
Путь: ...\CD2
001 -=- 01. Patrick Hernandez - Born To Be Alive.flac -=- CDDA (100%)
002 -=- 02. Norman Greenbaum - Spirit In The Sky.flac -=- CDDA (100%)
003 -=- 03. Carole Bayer Sager - You're Moving Out Today.flac -=- CDDA (100%)
004 -=- 04. Anita Ward - Ring My Bell.flac -=- MPEG (97%)
005 -=- 05. La Belle Epoque - Black Is Black.flac -=- CDDA (100%)
006 -=- 06. Barry Blue - Dancing On A Saturday Night.flac -=- CDDA (100%)
007 -=- 07. Sister Sledge - We Are Family.flac -=- CDDA (100%)
008 -=- 08. Chic - Le Freak.flac -=- CDDA (100%)
009 -=- 09. Chaka Khan - I'm Every Woman.flac -=- CDDA (100%)
010 -=- 10. Manhattan Transfer - Chanson D'Armour.flac -=- CDDA (100%)
011 -=- 11. Olivia Newton-John - If Not For You.flac -=- CDDA (100%)
012 -=- 12. Linda Ronstadt - Blue Bayou.flac -=- CDDA (100%)
013 -=- 13. The Spinners - I'll Be Around.flac -=- CDDA (100%)
014 -=- 14. Lobo - I'd Love You To Want Me.flac -=- CDDA (100%)
015 -=- 15. Bette Midler - The Rose.flac -=- CDDA (100%)
Сводка 93,53% CDDA

CD 3

AUDIOCHECKER v2.0 beta (build 457) - by Dester - [email protected]
~~~~~~~~~~~~~~~~~~~~~~~~~~~~~~~~~~
-=== НЕ РЕДАКТИРУЙТЕ ЭТОТ ФАЙЛ! ===-
Путь: ...\CD3
001 -=- 01. Chicago - If You Leave Me Know.flac -=- CDDA (100%)
002 -=- 02. Leo Sayer - The Show Must Go On.flac -=- CDDA (100%)
003 -=- 03. Bread - Make It With You.flac -=- CDDA (100%)
004 -=- 04. David Soul - Don't Give Up On Us.flac -=- CDDA (100%)
005 -=- 05. Sherbet - Cassandra.flac -=- CDDA (100%)
006 -=- 06. Hot Butter - Popcorn.flac -=- CDDA (99%)
007 -=- 07. Lieutenant Pigeon - Mouldy Old Dough.flac -=- CDDA (100%)
008 -=- 08. Pussyfoot - The Way You Do It.flac -=- CDDA (100%)
009 -=- 09. Fox - S-S-S-Single Bed.flac -=- CDDA (100%)
010 -=- 10. Ronnie Burns - Smiley.flac -=- CDDA (100%)
011 -=- 11. Seals And Crofts - Summer Breeze.flac -=- CDDA (100%)
012 -=- 12. The Four Seasons - December 1963 (oh what a night).flac -=- CDDA (100%)
013 -=- 13. Aretha Franklin - Spanish Harlem.flac -=- CDDA (99%)
014 -=- 14. Judy Collins - Amazing Grace.flac -=- CDDA (100%)
015 -=- 15. The New Seekers - You Won't Find Another Fool Like Me.flac -=- CDDA (49%)

Скриншот спектра частот

--Не забываем говорить
Рейтинг@Mail.ru