(Soul, Pop, Rock) VA - All The... 60's (3CD) - 2012 [FLAC, tracks+.cue, lossless]

 

Создавать темы 18-Фев-2015 17:32

-All The... 60's (3CD)-- Год издания: 2012
Страна: ---
Жанр: Soul, Pop, Rock
Продолжительность: 02:12:36-Лейбл издания: Warner Music
Тип альбома: Compilation
Страна-выпуска диска: USA
Номер по каталогу: 5310516672
Формат: FLAC
Битрейт аудио: lossless
Тип рипа: tracks+.cue
Наличие сканов в содержимом раздачи: front


Трэклист

CD 1 | 00:42:55

01. The Shirelles - Will You Love Me Tomorrow (02:43)
02. Gene Pitney - The Man Who Shot Liberty Valance (03:00)
03. Del Shannon - Runaway (02:21)
04. The Archies - Sugar Sugar (02:46)
05. Eddie Hodges - I'm Gonna Knock On Your Door (02:07)
06. The Monkees - I'm A Believer (02:46)
07. The Everly Brothers - Cathy's Clown (02:26)
08. Bobby Darin - Dream Lover (02:32)
09. Trini Lopez - If I Had A Hammer (03:02)
10. Edison Lighthouse - Love Grows (where my rosemary goes) (02:49)
11. Paul & Paula - Hey Paula (02:31)
12. Frankie Valli - Can't Take My Eyes Off You (03:23)
13. Esther Phillips - And I Love Her (02:40)
14. The Association - Cherish (03:27)
15. Ned Miller - From A Jack To A King (02:10)
16. Mel Torme - Cast Your Fate To The Winds (02:21)

CD 2 | 00:44:51

01. Aretha Franklin - I Say A Little Prayer (03:34)
02. The Drifters - Save The Last Dance For Me (02:35)
03. Otis Redding - (sittin' on) The Dock Of The Bay (02:43)
04. Frankie Valli & The Four Seasons - Big Girls Don't Cry (02:25)
05. Sonny & Cher - I Got You Babe (03:13)
06. Percy Sledge - When A Man Loves A Woman (02:51)
07. Sam & Dave - Hold On I'm Coming (02:30)
08. Ray Charles - I Got A Woman (02:54)
09. Jackie Wilson - (your love keeps lifting me) Higher And Higher (03:02)
10. Eddie Floyd - Knock On Wood (03:07)
11. Clarence Carter - Slip Away (02:33)
12. Dionne Warwick - I Just Don't Know What To Do With Myself (02:47)
13. Wilson Pickett - Land Of 1000 Dances (02:26)
14. Booker T & The MG's - Green Onions (02:55)
15. Ben E King - Spanish Harlem (02:59)
16. Arthur Conley - Sweet Soul Music (02:23)

CD 3 | 00:44:52

01. Normie Rowe - Shakin' All Over (02:35)
02. Johnny O'Keefe - She's My Baby (02:07)
03. Tony Joe White - Polk Salad Annie (03:45)
04. Buffalo Springfield - For What It's Worth (02:37)
05. R.B. Greaves - Take A Letter Maria (02:44)
06. Ray Brown - The Same Old Song (02:41)
07. Eddie Harris - I'm Gonna Leave You By Yourself (03:02)
08. Cascades - Rhythm Of The Rain (02:32)
09. The Fireballs - Bottle Of Wine (02:11)
10. Vanilla Fudge - You Keep Me Hangin' On (03:00)
11. Jack Nitzsche - The Lonely Surfer (02:35)
12. Johnny & The Hurricanes - Beatnik Fly (02:08)
13. B.J. Thomas - Mama (02:58)
14. Solomon Burke - Everybody Needs Somebody To Love (02:44)
15. Billy Pilgrim - Mama Says (03:44)
16. Lonnie Mack - I Found A Love (03:36)

Лог создания рипа

CD 1

Exact Audio Copy V1.0 beta 3 from 29. August 2011
EAC extraction logfile from 5. July 2012, 10:19
Various Artists / All The ... 60's - CD1
Used drive  : ASUS    DRW-24B3ST   Adapter: 0  ID: 2
Read mode               : Secure
Utilize accurate stream : Yes
Defeat audio cache      : Yes
Make use of C2 pointers : No
Read offset correction                      : 6
Overread into Lead-In and Lead-Out          : No
Fill up missing offset samples with silence : Yes
Delete leading and trailing silent blocks   : No
Null samples used in CRC calculations       : Yes
Used interface                              : Native Win32 interface for Win NT & 2000
Gap handling                                : Appended to previous track
Used output format              : User Defined Encoder
Selected bitrate                : 1024 kBit/s
Quality                         : High
Add ID3 tag                     : No
Command line compressor         : C:\Program Files (x86)\Exact Audio Copy\Flac\flac.exe
Additional command line options : -8 -V -T "Artist=%artist%" -T "Title=%title%" -T "Album=%albumtitle%" -T "Date=%year%" -T "Tracknumber=%tracknr%" -T "Genre=%genre%" %source% -o %dest%
TOC of the extracted CD
Track |   Start  |  Length  | Start sector | End sector
---------------------------------------------------------
1  |  0:00.00 |  2:42.21 |         0    |    12170
2  |  2:42.21 |  2:59.16 |     12171    |    25611
3  |  5:41.37 |  2:20.59 |     25612    |    36170
4  |  8:02.21 |  2:45.15 |     36171    |    48560
5  | 10:47.36 |  2:06.27 |     48561    |    58037
6  | 12:53.63 |  2:45.10 |     58038    |    70422
7  | 15:38.73 |  2:25.50 |     70423    |    81347
8  | 18:04.48 |  2:31.44 |     81348    |    92716
9  | 20:36.17 |  3:01.20 |     92717    |   106311
10  | 23:37.37 |  2:48.02 |    106312    |   118913
11  | 26:25.39 |  2:30.30 |    118914    |   130193
12  | 28:55.69 |  3:22.49 |    130194    |   145392
13  | 32:18.43 |  2:39.19 |    145393    |   157336
14  | 34:57.62 |  3:26.16 |    157337    |   172802
15  | 38:24.03 |  2:09.54 |    172803    |   182531
16  | 40:33.57 |  2:20.22 |    182532    |   193053
Track  1
Filename E:\All The ... 60's - flac\CD1\01 - The Shirelles - Will You Love Me Tomorrow.wav
Pre-gap length  0:00:02.00
Peak level 100.0 %
Extraction speed 3.2 X
Track quality 100.0 %
Test CRC 8D08D74C
Copy CRC 8D08D74C
Track not present in AccurateRip database
Copy OK
Track  2
Filename E:\All The ... 60's - flac\CD1\02 - Gene Pitney - The Man Who Shot Liberty Valance.wav
Peak level 100.0 %
Extraction speed 3.6 X
Track quality 100.0 %
Test CRC 63A9C17E
Copy CRC 63A9C17E
Track not present in AccurateRip database
Copy OK
Track  3
Filename E:\All The ... 60's - flac\CD1\03 - Del Shannon - Runaway.wav
Peak level 100.0 %
Extraction speed 3.6 X
Track quality 100.0 %
Test CRC 5E77594A
Copy CRC 5E77594A
Track not present in AccurateRip database
Copy OK
Track  4
Filename E:\All The ... 60's - flac\CD1\04 - The Archies - Sugar Sugar.wav
Peak level 100.0 %
Extraction speed 3.9 X
Track quality 100.0 %
Test CRC F6727C40
Copy CRC F6727C40
Track not present in AccurateRip database
Copy OK
Track  5
Filename E:\All The ... 60's - flac\CD1\05 - Eddie Hodges - I'm Gonna Knock On Your Door.wav
Peak level 100.0 %
Extraction speed 3.9 X
Track quality 100.0 %
Test CRC CB2D8D6F
Copy CRC CB2D8D6F
Track not present in AccurateRip database
Copy OK
Track  6
Filename E:\All The ... 60's - flac\CD1\06 - The Monkees - I'm A Believer.wav
Peak level 100.0 %
Extraction speed 4.3 X
Track quality 100.0 %
Test CRC 99572A09
Copy CRC 99572A09
Track not present in AccurateRip database
Copy OK
Track  7
Filename E:\All The ... 60's - flac\CD1\07 - The Everly Brothers - Cathy's Clown.wav
Peak level 100.0 %
Extraction speed 4.4 X
Track quality 100.0 %
Test CRC CF9DE023
Copy CRC CF9DE023
Track not present in AccurateRip database
Copy OK
Track  8
Filename E:\All The ... 60's - flac\CD1\08 - Bobby Darin - Dream Lover.wav
Peak level 100.0 %
Extraction speed 4.6 X
Track quality 100.0 %
Test CRC D551F245
Copy CRC D551F245
Track not present in AccurateRip database
Copy OK
Track  9
Filename E:\All The ... 60's - flac\CD1\09 - Trini Lopez - If I Had A Hammer.wav
Peak level 100.0 %
Extraction speed 3.7 X
Track quality 99.9 %
Test CRC 74A9D5C6
Copy CRC 74A9D5C6
Track not present in AccurateRip database
Copy OK
Track 10
Filename E:\All The ... 60's - flac\CD1\10 - Edison Lighthouse - Love Grows (where my rosemary goes).wav
Peak level 98.9 %
Extraction speed 5.0 X
Track quality 100.0 %
Test CRC 18B66F30
Copy CRC 18B66F30
Track not present in AccurateRip database
Copy OK
Track 11
Filename E:\All The ... 60's - flac\CD1\11 - Paul & Paula - Hey Paula.wav
Peak level 99.7 %
Extraction speed 3.7 X
Track quality 99.9 %
Test CRC B8F90E8D
Copy CRC B8F90E8D
Track not present in AccurateRip database
Copy OK
Track 12
Filename E:\All The ... 60's - flac\CD1\12 - Frankie Valli - Can't Take My Eyes Off You.wav
Peak level 100.0 %
Extraction speed 5.5 X
Track quality 100.0 %
Test CRC 3FB6ED5C
Copy CRC 3FB6ED5C
Track not present in AccurateRip database
Copy OK
Track 13
Filename E:\All The ... 60's - flac\CD1\13 - Esther Phillips - And I Love Her.wav
Peak level 100.0 %
Extraction speed 5.4 X
Track quality 100.0 %
Test CRC 40D2E9DE
Copy CRC 40D2E9DE
Track not present in AccurateRip database
Copy OK
Track 14
Filename E:\All The ... 60's - flac\CD1\14 - The Association - Cherish.wav
Peak level 100.0 %
Extraction speed 5.8 X
Track quality 100.0 %
Test CRC 200DA454
Copy CRC 200DA454
Track not present in AccurateRip database
Copy OK
Track 15
Filename E:\All The ... 60's - flac\CD1\15 - Ned Miller - From A Jack To A King.wav
Peak level 96.6 %
Extraction speed 5.5 X
Track quality 100.0 %
Test CRC F836CC6B
Copy CRC F836CC6B
Track not present in AccurateRip database
Copy OK
Track 16
Filename E:\All The ... 60's - flac\CD1\16 - Mel Torme - Cast Your Fate To The Winds.wav
Peak level 100.0 %
Extraction speed 5.7 X
Track quality 100.0 %
Test CRC 9FFF8678
Copy CRC 9FFF8678
Track not present in AccurateRip database
Copy OK
None of the tracks are present in the AccurateRip database
No errors occurred
End of status report

CD 2

Exact Audio Copy V1.0 beta 3 from 29. August 2011
EAC extraction logfile from 6. July 2012, 8:52
Various Artists / All The ... 60's - CD2
Used drive  : ASUS    DRW-24B3ST   Adapter: 0  ID: 2
Read mode               : Secure
Utilize accurate stream : Yes
Defeat audio cache      : Yes
Make use of C2 pointers : No
Read offset correction                      : 6
Overread into Lead-In and Lead-Out          : No
Fill up missing offset samples with silence : Yes
Delete leading and trailing silent blocks   : No
Null samples used in CRC calculations       : Yes
Used interface                              : Native Win32 interface for Win NT & 2000
Gap handling                                : Appended to previous track
Used output format              : User Defined Encoder
Selected bitrate                : 1024 kBit/s
Quality                         : High
Add ID3 tag                     : No
Command line compressor         : C:\Program Files (x86)\Exact Audio Copy\Flac\flac.exe
Additional command line options : -8 -V -T "Artist=%artist%" -T "Title=%title%" -T "Album=%albumtitle%" -T "Date=%year%" -T "Tracknumber=%tracknr%" -T "Genre=%genre%" %source% -o %dest%
TOC of the extracted CD
Track |   Start  |  Length  | Start sector | End sector
---------------------------------------------------------
1  |  0:00.00 |  3:33.61 |         0    |    16035
2  |  3:33.61 |  2:34.48 |     16036    |    27633
3  |  6:08.34 |  2:42.41 |     27634    |    39824
4  |  8:51.00 |  2:24.06 |     39825    |    50630
5  | 11:15.06 |  3:12.18 |     50631    |    65048
6  | 14:27.24 |  2:50.71 |     65049    |    77869
7  | 17:18.20 |  2:29.50 |     77870    |    89094
8  | 19:47.70 |  2:53.61 |     89095    |   102130
9  | 22:41.56 |  3:01.09 |    102131    |   115714
10  | 25:42.65 |  3:06.69 |    115715    |   129733
11  | 28:49.59 |  2:32.37 |    129734    |   141170
12  | 31:22.21 |  2:46.38 |    141171    |   153658
13  | 34:08.59 |  2:25.36 |    153659    |   164569
14  | 36:34.20 |  2:54.66 |    164570    |   177685
15  | 39:29.11 |  2:58.41 |    177686    |   191076
16  | 42:27.52 |  2:22.31 |    191077    |   201757
Track  1
Filename E:\All The ... 60's - flac\CD2\01 - Aretha Franklin - I Say A Little Prayer.wav
Pre-gap length  0:00:02.00
Peak level 98.0 %
Extraction speed 2.7 X
Track quality 99.9 %
Test CRC 82E6C7C7
Copy CRC 82E6C7C7
Track not present in AccurateRip database
Copy OK
Track  2
Filename E:\All The ... 60's - flac\CD2\02 - The Drifters - Save The Last Dance For Me.wav
Peak level 98.0 %
Extraction speed 3.5 X
Track quality 100.0 %
Test CRC 9D8C0A55
Copy CRC 9D8C0A55
Track not present in AccurateRip database
Copy OK
Track  3
Filename E:\All The ... 60's - flac\CD2\03 - Otis Redding - (sittin' on) The Dock Of The Bay.wav
Peak level 98.0 %
Extraction speed 3.8 X
Track quality 100.0 %
Test CRC F3AD2736
Copy CRC F3AD2736
Track not present in AccurateRip database
Copy OK
Track  4
Filename E:\All The ... 60's - flac\CD2\04 - Frankie Valli & The Four Seasons - Big Girls Don't Cry.wav
Peak level 98.0 %
Extraction speed 2.8 X
Track quality 99.9 %
Test CRC 784CE41B
Copy CRC 784CE41B
Track not present in AccurateRip database
Copy OK
Track  5
Filename E:\All The ... 60's - flac\CD2\05 - Sonny & Cher - I Got You Babe.wav
Peak level 98.0 %
Extraction speed 3.3 X
Track quality 99.9 %
Test CRC F8E88A10
Copy CRC F8E88A10
Track not present in AccurateRip database
Copy OK
Track  6
Filename E:\All The ... 60's - flac\CD2\06 - Percy Sledge - When A Man Loves A Woman.wav
Peak level 98.0 %
Extraction speed 3.3 X
Track quality 99.9 %
Test CRC 49D10606
Copy CRC 49D10606
Track not present in AccurateRip database
Copy OK
Track  7
Filename E:\All The ... 60's - flac\CD2\07 - Sam & Dave - Hold On I'm Coming.wav
Peak level 98.0 %
Extraction speed 4.5 X
Track quality 100.0 %
Test CRC 5E1F487F
Copy CRC 5E1F487F
Track not present in AccurateRip database
Copy OK
Track  8
Filename E:\All The ... 60's - flac\CD2\08 - Ray Charles - I Got A Woman.wav
Peak level 95.4 %
Extraction speed 4.8 X
Track quality 100.0 %
Test CRC 13ECB334
Copy CRC 13ECB334
Track not present in AccurateRip database
Copy OK
Track  9
Filename E:\All The ... 60's - flac\CD2\09 - Jackie Wilson - (your love keeps lifting me) Higher And Higher.wav
Peak level 98.0 %
Extraction speed 5.0 X
Track quality 100.0 %
Test CRC 5F14ABFA
Copy CRC 5F14ABFA
Track not present in AccurateRip database
Copy OK
Track 10
Filename E:\All The ... 60's - flac\CD2\10 - Eddie Floyd - Knock On Wood.wav
Peak level 98.0 %
Extraction speed 4.0 X
Track quality 99.9 %
Test CRC 9A046BB4
Copy CRC 9A046BB4
Track not present in AccurateRip database
Copy OK
Track 11
Filename E:\All The ... 60's - flac\CD2\11 - Clarence Carter - Slip Away.wav
Peak level 98.0 %
Extraction speed 5.2 X
Track quality 100.0 %
Test CRC BFD67E5F
Copy CRC BFD67E5F
Track not present in AccurateRip database
Copy OK
Track 12
Filename E:\All The ... 60's - flac\CD2\12 - Dionne Warwick - I Just Don't Know What To Do With Myself.wav
Peak level 98.0 %
Extraction speed 5.4 X
Track quality 100.0 %
Test CRC 3E9DE233
Copy CRC 3E9DE233
Track not present in AccurateRip database
Copy OK
Track 13
Filename E:\All The ... 60's - flac\CD2\13 - Wilson Pickett - Land Of 1000 Dances.wav
Peak level 98.0 %
Extraction speed 5.4 X
Track quality 100.0 %
Test CRC C7E5D72F
Copy CRC C7E5D72F
Track not present in AccurateRip database
Copy OK
Track 14
Filename E:\All The ... 60's - flac\CD2\14 - Booker T & The MG's - Green Onions.wav
Peak level 97.9 %
Extraction speed 5.7 X
Track quality 100.0 %
Test CRC 10ABE5CC
Copy CRC 10ABE5CC
Track not present in AccurateRip database
Copy OK
Track 15
Filename E:\All The ... 60's - flac\CD2\15 - Ben E King - Spanish Harlem.wav
Peak level 98.0 %
Extraction speed 5.9 X
Track quality 100.0 %
Test CRC 9039AB40
Copy CRC 9039AB40
Track not present in AccurateRip database
Copy OK
Track 16
Filename E:\All The ... 60's - flac\CD2\16 - Arthur Conley - Sweet Soul Music.wav
Peak level 98.0 %
Extraction speed 4.1 X
Track quality 99.9 %
Test CRC F4212C86
Copy CRC F4212C86
Track not present in AccurateRip database
Copy OK
None of the tracks are present in the AccurateRip database
No errors occurred
End of status report

CD 3

Exact Audio Copy V1.0 beta 3 from 29. August 2011
EAC extraction logfile from 5. July 2012, 20:47
Various Artists / All The ... 60's - CD3
Used drive  : ASUS    DRW-24B3ST   Adapter: 0  ID: 2
Read mode               : Secure
Utilize accurate stream : Yes
Defeat audio cache      : Yes
Make use of C2 pointers : No
Read offset correction                      : 6
Overread into Lead-In and Lead-Out          : No
Fill up missing offset samples with silence : Yes
Delete leading and trailing silent blocks   : No
Null samples used in CRC calculations       : Yes
Used interface                              : Native Win32 interface for Win NT & 2000
Gap handling                                : Appended to previous track
Used output format              : User Defined Encoder
Selected bitrate                : 1024 kBit/s
Quality                         : High
Add ID3 tag                     : No
Command line compressor         : C:\Program Files (x86)\Exact Audio Copy\Flac\flac.exe
Additional command line options : -8 -V -T "Artist=%artist%" -T "Title=%title%" -T "Album=%albumtitle%" -T "Date=%year%" -T "Tracknumber=%tracknr%" -T "Genre=%genre%" %source% -o %dest%
TOC of the extracted CD
Track |   Start  |  Length  | Start sector | End sector
---------------------------------------------------------
1  |  0:00.00 |  2:34.08 |         0    |    11557
2  |  2:34.08 |  2:06.54 |     11558    |    21061
3  |  4:40.62 |  3:44.07 |     21062    |    37868
4  |  8:24.69 |  2:36.11 |     37869    |    49579
5  | 11:01.05 |  2:43.50 |     49580    |    61854
6  | 13:44.55 |  2:40.09 |     61855    |    73863
7  | 16:24.64 |  3:01.15 |     73864    |    87453
8  | 19:26.04 |  2:31.64 |     87454    |    98842
9  | 21:57.68 |  2:10.69 |     98843    |   108661
10  | 24:08.62 |  2:59.73 |    108662    |   122159
11  | 27:08.60 |  2:34.36 |    122160    |   133745
12  | 29:43.21 |  2:07.73 |    133746    |   143343
13  | 31:51.19 |  2:57.18 |    143344    |   156636
14  | 34:48.37 |  2:43.67 |    156637    |   168928
15  | 37:32.29 |  3:43.35 |    168929    |   185688
16  | 41:15.64 |  3:35.50 |    185689    |   201863
Track  1
Filename E:\All The ... 60's - flac\CD3\01 - Normie Rowe - Shakin' All Over.wav
Pre-gap length  0:00:02.00
Peak level 98.0 %
Extraction speed 3.1 X
Track quality 100.0 %
Test CRC A495D8CB
Copy CRC A495D8CB
Track not present in AccurateRip database
Copy OK
Track  2
Filename E:\All The ... 60's - flac\CD3\02 - Johnny O'Keefe - She's My Baby.wav
Peak level 98.0 %
Extraction speed 3.2 X
Track quality 100.0 %
Test CRC 2143BD1F
Copy CRC 2143BD1F
Track not present in AccurateRip database
Copy OK
Track  3
Filename E:\All The ... 60's - flac\CD3\03 - Tony Joe White - Polk Salad Annie.wav
Peak level 98.0 %
Extraction speed 3.1 X
Track quality 99.9 %
Test CRC 18271612
Copy CRC 18271612
Track not present in AccurateRip database
Copy OK
Track  4
Filename E:\All The ... 60's - flac\CD3\04 - Buffalo Springfield - For What It's Worth.wav
Peak level 98.0 %
Extraction speed 3.9 X
Track quality 100.0 %
Test CRC DBD78774
Copy CRC DBD78774
Track not present in AccurateRip database
Copy OK
Track  5
Filename E:\All The ... 60's - flac\CD3\05 - R.B. Greaves - Take A Letter Maria.wav
Peak level 98.0 %
Extraction speed 3.1 X
Track quality 99.9 %
Test CRC D962B4C1
Copy CRC D962B4C1
Track not present in AccurateRip database
Copy OK
Track  6
Filename E:\All The ... 60's - flac\CD3\06 - Ray Brown - The Same Old Song.wav
Peak level 98.0 %
Extraction speed 4.2 X
Track quality 100.0 %
Test CRC 3F8A4459
Copy CRC 3F8A4459
Track not present in AccurateRip database
Copy OK
Track  7
Filename E:\All The ... 60's - flac\CD3\07 - Eddie Harris - I'm Gonna Leave You By Yourself.wav
Peak level 98.0 %
Extraction speed 4.6 X
Track quality 100.0 %
Test CRC AD5F4191
Copy CRC AD5F4191
Track not present in AccurateRip database
Copy OK
Track  8
Filename E:\All The ... 60's - flac\CD3\08 - Cascades - Rhythm Of The Rain.wav
Peak level 98.0 %
Extraction speed 4.7 X
Track quality 100.0 %
Test CRC 6D294460
Copy CRC 6D294460
Track not present in AccurateRip database
Copy OK
Track  9
Filename E:\All The ... 60's - flac\CD3\09 - The Fireballs - Bottle Of Wine.wav
Peak level 98.0 %
Extraction speed 4.6 X
Track quality 100.0 %
Test CRC 4A0C8A09
Copy CRC 4A0C8A09
Track not present in AccurateRip database
Copy OK
Track 10
Filename E:\All The ... 60's - flac\CD3\10 - Vanilla Fudge - You Keep Me Hangin' On.wav
Peak level 98.0 %
Extraction speed 5.1 X
Track quality 100.0 %
Test CRC 1EB373BF
Copy CRC 1EB373BF
Track not present in AccurateRip database
Copy OK
Track 11
Filename E:\All The ... 60's - flac\CD3\11 - Jack Nitzsche - The Lonely Surfer.wav
Peak level 98.0 %
Extraction speed 5.1 X
Track quality 100.0 %
Test CRC 66C96EC5
Copy CRC 66C96EC5
Track not present in AccurateRip database
Copy OK
Track 12
Filename E:\All The ... 60's - flac\CD3\12 - Johnny & The Hurricanes - Beatnik Fly.wav
Peak level 98.0 %
Extraction speed 5.0 X
Track quality 100.0 %
Test CRC EDBDA839
Copy CRC EDBDA839
Track not present in AccurateRip database
Copy OK
Track 13
Filename E:\All The ... 60's - flac\CD3\13 - B.J. Thomas - Mama.wav
Peak level 98.0 %
Extraction speed 5.5 X
Track quality 100.0 %
Test CRC BF5069B8
Copy CRC BF5069B8
Track not present in AccurateRip database
Copy OK
Track 14
Filename E:\All The ... 60's - flac\CD3\14 - Solomon Burke - Everybody Needs Somebody To Love.wav
Peak level 98.0 %
Extraction speed 5.6 X
Track quality 100.0 %
Test CRC 256E3554
Copy CRC 256E3554
Track not present in AccurateRip database
Copy OK
Track 15
Filename E:\All The ... 60's - flac\CD3\15 - Billy Pilgrim - Mama Says.wav
Peak level 98.0 %
Extraction speed 6.0 X
Track quality 100.0 %
Test CRC 4539B773
Copy CRC 4539B773
Track not present in AccurateRip database
Copy OK
Track 16
Filename E:\All The ... 60's - flac\CD3\16 - Lonnie Mack - I Found A Love.wav
Peak level 98.0 %
Extraction speed 6.2 X
Track quality 100.0 %
Test CRC 00EBE820
Copy CRC 00EBE820
Track not present in AccurateRip database
Copy OK
None of the tracks are present in the AccurateRip database
No errors occurred
End of status report

Индексная карта (non-compilant .cue)

CD 1

REM GENRE "Top 40"
REM DATE 2012
REM DISCID E80A0E10
REM COMMENT "ExactAudioCopy v1.0b3"
FILE "01 - The Shirelles - Will You Love Me Tomorrow.wav" WAVE
TRACK 01 AUDIO
INDEX 01 00:00:00
FILE "02 - Gene Pitney - The Man Who Shot Liberty Valance.wav" WAVE
TRACK 02 AUDIO
INDEX 01 00:00:00
FILE "03 - Del Shannon - Runaway.wav" WAVE
TRACK 03 AUDIO
INDEX 01 00:00:00
FILE "04 - The Archies - Sugar Sugar.wav" WAVE
TRACK 04 AUDIO
INDEX 01 00:00:00
FILE "05 - Eddie Hodges - I'm Gonna Knock On Your Door.wav" WAVE
TRACK 05 AUDIO
INDEX 01 00:00:00
FILE "06 - The Monkees - I'm A Believer.wav" WAVE
TRACK 06 AUDIO
INDEX 01 00:00:00
FILE "07 - The Everly Brothers - Cathy's Clown.wav" WAVE
TRACK 07 AUDIO
INDEX 01 00:00:00
FILE "08 - Bobby Darin - Dream Lover.wav" WAVE
TRACK 08 AUDIO
INDEX 01 00:00:00
FILE "09 - Trini Lopez - If I Had A Hammer.wav" WAVE
TRACK 09 AUDIO
INDEX 01 00:00:00
FILE "10 - Edison Lighthouse - Love Grows (where my rosemary goes).wav" WAVE
TRACK 10 AUDIO
INDEX 01 00:00:00
FILE "11 - Paul & Paula - Hey Paula.wav" WAVE
TRACK 11 AUDIO
INDEX 01 00:00:00
FILE "12 - Frankie Valli - Can't Take My Eyes Off You.wav" WAVE
TRACK 12 AUDIO
INDEX 01 00:00:00
FILE "13 - Esther Phillips - And I Love Her.wav" WAVE
TRACK 13 AUDIO
INDEX 01 00:00:00
FILE "14 - The Association - Cherish.wav" WAVE
TRACK 14 AUDIO
INDEX 01 00:00:00
FILE "15 - Ned Miller - From A Jack To A King.wav" WAVE
TRACK 15 AUDIO
INDEX 01 00:00:00
FILE "16 - Mel Torme - Cast Your Fate To The Winds.wav" WAVE
TRACK 16 AUDIO
INDEX 01 00:00:00

CD 2

REM GENRE "Top 40"
REM DATE 2012
REM DISCID D80A8210
REM COMMENT "ExactAudioCopy v1.0b3"
FILE "01 - Aretha Franklin - I Say A Little Prayer.wav" WAVE
TRACK 01 AUDIO
INDEX 01 00:00:00
FILE "02 - The Drifters - Save The Last Dance For Me.wav" WAVE
TRACK 02 AUDIO
INDEX 01 00:00:00
FILE "03 - Otis Redding - (sittin' on) The Dock Of The Bay.wav" WAVE
TRACK 03 AUDIO
INDEX 01 00:00:00
FILE "04 - Frankie Valli & The Four Seasons - Big Girls Don't Cry.wav" WAVE
TRACK 04 AUDIO
INDEX 01 00:00:00
FILE "05 - Sonny & Cher - I Got You Babe.wav" WAVE
TRACK 05 AUDIO
INDEX 01 00:00:00
FILE "06 - Percy Sledge - When A Man Loves A Woman.wav" WAVE
TRACK 06 AUDIO
INDEX 01 00:00:00
FILE "07 - Sam & Dave - Hold On I'm Coming.wav" WAVE
TRACK 07 AUDIO
INDEX 01 00:00:00
FILE "08 - Ray Charles - I Got A Woman.wav" WAVE
TRACK 08 AUDIO
INDEX 01 00:00:00
FILE "09 - Jackie Wilson - (your love keeps lifting me) Higher And Higher.wav" WAVE
TRACK 09 AUDIO
INDEX 01 00:00:00
FILE "10 - Eddie Floyd - Knock On Wood.wav" WAVE
TRACK 10 AUDIO
INDEX 01 00:00:00
FILE "11 - Clarence Carter - Slip Away.wav" WAVE
TRACK 11 AUDIO
INDEX 01 00:00:00
FILE "12 - Dionne Warwick - I Just Don't Know What To Do With Myself.wav" WAVE
TRACK 12 AUDIO
INDEX 01 00:00:00
FILE "13 - Wilson Pickett - Land Of 1000 Dances.wav" WAVE
TRACK 13 AUDIO
INDEX 01 00:00:00
FILE "14 - Booker T & The MG's - Green Onions.wav" WAVE
TRACK 14 AUDIO
INDEX 01 00:00:00
FILE "15 - Ben E King - Spanish Harlem.wav" WAVE
TRACK 15 AUDIO
INDEX 01 00:00:00
FILE "16 - Arthur Conley - Sweet Soul Music.wav" WAVE
TRACK 16 AUDIO
INDEX 01 00:00:00

CD 3

REM GENRE "Top 40"
REM DATE 2012
REM DISCID DC0A8310
REM COMMENT "ExactAudioCopy v1.0b3"
FILE "01 - Normie Rowe - Shakin' All Over.wav" WAVE
TRACK 01 AUDIO
INDEX 01 00:00:00
FILE "02 - Johnny O'Keefe - She's My Baby.wav" WAVE
TRACK 02 AUDIO
INDEX 01 00:00:00
FILE "03 - Tony Joe White - Polk Salad Annie.wav" WAVE
TRACK 03 AUDIO
INDEX 01 00:00:00
FILE "04 - Buffalo Springfield - For What It's Worth.wav" WAVE
TRACK 04 AUDIO
INDEX 01 00:00:00
FILE "05 - R.B. Greaves - Take A Letter Maria.wav" WAVE
TRACK 05 AUDIO
INDEX 01 00:00:00
FILE "06 - Ray Brown - The Same Old Song.wav" WAVE
TRACK 06 AUDIO
INDEX 01 00:00:00
FILE "07 - Eddie Harris - I'm Gonna Leave You By Yourself.wav" WAVE
TRACK 07 AUDIO
INDEX 01 00:00:00
FILE "08 - Cascades - Rhythm Of The Rain.wav" WAVE
TRACK 08 AUDIO
INDEX 01 00:00:00
FILE "09 - The Fireballs - Bottle Of Wine.wav" WAVE
TRACK 09 AUDIO
INDEX 01 00:00:00
FILE "10 - Vanilla Fudge - You Keep Me Hangin' On.wav" WAVE
TRACK 10 AUDIO
INDEX 01 00:00:00
FILE "11 - Jack Nitzsche - The Lonely Surfer.wav" WAVE
TRACK 11 AUDIO
INDEX 01 00:00:00
FILE "12 - Johnny & The Hurricanes - Beatnik Fly.wav" WAVE
TRACK 12 AUDIO
INDEX 01 00:00:00
FILE "13 - B.J. Thomas - Mama.wav" WAVE
TRACK 13 AUDIO
INDEX 01 00:00:00
FILE "14 - Solomon Burke - Everybody Needs Somebody To Love.wav" WAVE
TRACK 14 AUDIO
INDEX 01 00:00:00
FILE "15 - Billy Pilgrim - Mama Says.wav" WAVE
TRACK 15 AUDIO
INDEX 01 00:00:00
FILE "16 - Lonnie Mack - I Found A Love.wav" WAVE
TRACK 16 AUDIO
INDEX 01 00:00:00

Лог Audiochecker

CD 1

AUDIOCHECKER v2.0 beta (build 457) - by Dester - [email protected]
~~~~~~~~~~~~~~~~~~~~~~~~~~~~~~~~~~
-=== НЕ РЕДАКТИРУЙТЕ ЭТОТ ФАЙЛ! ===-
Путь: ...\CD1
001 -=- 01. The Shirelles - Will You Love Me Tomorrow.flac -=- CDDA (100%)
002 -=- 02. Gene Pitney - The Man Who Shot Liberty Valance.flac -=- CDDA (100%)
003 -=- 03. Del Shannon - Runaway.flac -=- CDDA (86%)
004 -=- 04. The Archies - Sugar Sugar.flac -=- CDDA (100%)
005 -=- 05. Eddie Hodges - I'm Gonna Knock On Your Door.flac -=- CDDA (100%)
006 -=- 06. The Monkees - I'm A Believer.flac -=- CDDA (100%)
007 -=- 07. The Everly Brothers - Cathy's Clown.flac -=- CDDA (100%)
008 -=- 08. Bobby Darin - Dream Lover.flac -=- CDDA (100%)
009 -=- 09. Trini Lopez - If I Had A Hammer.flac -=- CDDA (100%)
010 -=- 10. Edison Lighthouse - Love Grows (where my rosemary goes).flac -=- CDDA (100%)
011 -=- 11. Paul & Paula - Hey Paula.flac -=- CDDA (100%)
012 -=- 12. Frankie Valli - Can't Take My Eyes Off You.flac -=- CDDA (100%)
013 -=- 13. Esther Phillips - And I Love Her.flac -=- CDDA (100%)
014 -=- 14. The Association - Cherish.flac -=- CDDA (100%)
015 -=- 15. Ned Miller - From A Jack To A King.flac -=- CDDA (100%)
016 -=- 16. Mel Torme - Cast Your Fate To The Winds.flac -=- CDDA (100%)
Сводка 99,13% CDDA

CD 2

AUDIOCHECKER v2.0 beta (build 457) - by Dester - [email protected]
~~~~~~~~~~~~~~~~~~~~~~~~~~~~~~~~~~
-=== НЕ РЕДАКТИРУЙТЕ ЭТОТ ФАЙЛ! ===-
Путь: ...\CD2
001 -=- 01. Aretha Franklin - I Say A Little Prayer.flac -=- CDDA (100%)
002 -=- 02. The Drifters - Save The Last Dance For Me.flac -=- CDDA (100%)
003 -=- 03. Otis Redding - (sittin' on) The Dock Of The Bay.flac -=- CDDA (100%)
004 -=- 04. Frankie Valli & The Four Seasons - Big Girls Don't Cry.flac -=- CDDA (100%)
005 -=- 05. Sonny & Cher - I Got You Babe.flac -=- CDDA (100%)
006 -=- 06. Percy Sledge - When A Man Loves A Woman.flac -=- CDDA (100%)
007 -=- 07. Sam & Dave - Hold On I'm Coming.flac -=- CDDA (100%)
008 -=- 08. Ray Charles - I Got A Woman.flac -=- CDDA (100%)
009 -=- 09. Jackie Wilson - (your love keeps lifting me) Higher And Higher.flac -=- CDDA (100%)
010 -=- 10. Eddie Floyd - Knock On Wood.flac -=- CDDA (100%)
011 -=- 11. Clarence Carter - Slip Away.flac -=- CDDA (100%)
012 -=- 12. Dionne Warwick - I Just Don't Know What To Do With Myself.flac -=- CDDA (100%)
013 -=- 13. Wilson Pickett - Land Of 1000 Dances.flac -=- CDDA (100%)
014 -=- 14. Booker T & The MG's - Green Onions.flac -=- CDDA (100%)
015 -=- 15. Ben E King - Spanish Harlem.flac -=- CDDA (100%)
016 -=- 16. Arthur Conley - Sweet Soul Music.flac -=- CDDA (100%)
Сводка 100,00% CDDA

CD 3

AUDIOCHECKER v2.0 beta (build 457) - by Dester - [email protected]
~~~~~~~~~~~~~~~~~~~~~~~~~~~~~~~~~~
-=== НЕ РЕДАКТИРУЙТЕ ЭТОТ ФАЙЛ! ===-
Путь: ...\CD3
001 -=- 01. Normie Rowe - Shakin' All Over.flac -=- CDDA (99%)
002 -=- 02. Johnny O'Keefe - She's My Baby.flac -=- CDDA (100%)
003 -=- 03. Tony Joe White - Polk Salad Annie.flac -=- CDDA (100%)
004 -=- 04. Buffalo Springfield - For What It's Worth.flac -=- CDDA (94%)
005 -=- 05. R.B. Greaves - Take A Letter Maria.flac -=- CDDA (100%)
006 -=- 06. Ray Brown - The Same Old Song.flac -=- CDDA (100%)
007 -=- 07. Eddie Harris - I'm Gonna Leave You By Yourself.flac -=- CDDA (100%)
008 -=- 08. Cascades - Rhythm Of The Rain.flac -=- CDDA (100%)
009 -=- 09. The Fireballs - Bottle Of Wine.flac -=- CDDA (100%)
010 -=- 10. Vanilla Fudge - You Keep Me Hangin' On.flac -=- CDDA (100%)
011 -=- 11. Jack Nitzsche - The Lonely Surfer.flac -=- CDDA (100%)
012 -=- 12. Johnny & The Hurricanes - Beatnik Fly.flac -=- CDDA (100%)
013 -=- 13. B.J. Thomas - Mama.flac -=- CDDA (100%)
014 -=- 14. Solomon Burke - Everybody Needs Somebody To Love.flac -=- CDDA (100%)
015 -=- 15. Billy Pilgrim - Mama Says.flac -=- CDDA (100%)
016 -=- 16. Lonnie Mack - I Found A Love.flac -=- CDDA (100%)
Сводка 99,56% CDDA

Скриншот спектра частот

--Не забываем говорить
Яндекс.Метрика
Рейтинг@Mail.ru