[ Сегодня на трекере фрилич! Идет свободное скачивание без начисления Download ]

VA - Летний марафон № 116 / Видеоклипы (Новые хитовые клипы) (2014) [H.264/1080p-LQ] WEBRip

 

Создавать темы 17-Фев-2015 22:06

VA - Летний марафон № 116 / (Новые хитовые клипы) (2014)-- Русское название: Летний марафон № 116
Оригинальное название: (Новые хитовые клипы)
Год выпуска: 2014
Жанр: Pop, Dance, Latino, Country
Контейнер: MP4
Кол-во клипов: 16
Продолжительность: 00:56:45

Описание:
Летние (26.06.2014) поп. новинки зарубежной эстрады. Не пропустите, держите новые треки.--

Видеокодек: MPEG-4 AVC/H.264
Битрейт видео: 4.496 ~ 2.188 kbps avg, 0.087 ~ 0.042 bit.pixel
Размер кадра: 1920:1080 (16:9), 25.000 fps
Качество видео: WEBRip
Аудиокодек: AAC, 2 ch, stereo
Битрейт аудио: 126 - 152 Kbps avg
--Треклист:
1. Alanis Morissette - Big Sur (Official Video) (00:04:04)
2. Belinda ft. Pitbull - I Love You... Te Quiero (Official Video) (00:04:26)
3. Brianna - Vacant (Official Video) (00:03:30)
4. Chayanne - Humanos a Marte (Official Video) (00:04:30)
5. Christina Matsa - Aventura (Official Video) (00:03:04)
6. Justice Crew - Que Sera (Official Video) (00:03:33)
7. Kevin Hellenbrand - Sparks Will Fly (Official Video)

продолжение треклиста

8. Luke Bryan - Roller Coaster (Official Video) (00:04:22)
9. Miryam Millan - Beautiful People (Official Video) (00:03:24)
10. Mossano feat Ami - I Promise You (Official Video) (00:03:34)
11. Nyla - Body Calling (Official Video) (00:03:59)
12. Paul Janke ft. Tony T Multitalented - I Wanna Live In Brazil (00:03:23)
13. Robin Thicke - Get Her Back (Official Video) (00:03:43)
14. Sisters Cap ft. Liz Hill - Hey Oh (Official Video) (00:03:35)
15. T. Mills - All I Wanna Do (Official Video) (00:03:21)
16. Tom Boxer & Morena - Balans (Official Video) (00:03:25)

MediaInfo подробно:

Общее
Полное имя : E:\VA - Летний марафон № 116 (Новые хитовые клипы)\Alanis Morissette - Big Sur (Official Video).mp4
Формат : MPEG-4
Профиль формата : Base Media
Идентификатор кодека : isom
Размер файла : 132 Мбайт
Продолжительность : 4 м. 4 с.
Общий поток : 4541 Кбит/сек
Дата кодирования : UTC 2014-06-23 12:14:08
Дата пометки : UTC 2014-06-23 12:14:08
Программа кодирования : Lavf54.63.104
Видео
Идентификатор : 1
Формат : AVC
Формат/Информация : Advanced Video Codec
Профиль формата : [email protected]
Параметр CABAC формата : Да
Параметр ReFrames формата : 1 кадр
Идентификатор кодека : avc1
Идентификатор кодека/Информация : Advanced Video Coding
Продолжительность : 4 м. 4 с.
Вид битрейта : Переменный
Битрейт : 4496 Кбит/сек
Ширина : 1920 пикс.
Высота : 1080 пикс.
Соотношение сторон : 16:9
Режим частоты кадров : Постоянный
Частота кадров : 25,000 кадр/сек
Цветовое пространство : YUV
Подвыборка цветности : 4:2:0
Битовая глубина : 8 бит
Тип развёртки : Прогрессивная
Бит/(Пиксели*Кадры) : 0.087
Размер потока : 128 Мбайт (97%)
Библиотека кодирования : x264 core 129
Настройки программы : cabac=1 / ref=1 / deblock=1:0:0 / analyse=0x1:0x131 / me=dia / subme=2 / psy=1 / psy_rd=1.00:0.00 / mixed_ref=0 / me_range=16 / chroma_me=1 / trellis=0 / 8x8dct=0 / cqm=0 / deadzone=21,11 / fast_pskip=1 / chroma_qp_offset=0 / threads=2 / lookahead_threads=1 / sliced_threads=0 / nr=0 / decimate=1 / interlaced=0 / bluray_compat=0 / constrained_intra=0 / bframes=0 / weightp=2 / keyint=250 / keyint_min=25 / scenecut=40 / intra_refresh=0 / rc_lookahead=40 / rc=abr / mbtree=1 / bitrate=4496 / ratetol=1.0 / qcomp=0.60 / qpmin=10 / qpmax=51 / qpstep=4 / ip_ratio=1.41 / aq=1:1.00
Дата кодирования : UTC 2014-06-23 12:14:08
Дата пометки : UTC 2014-06-23 12:14:08
Аудио
Идентификатор : 2
Формат : AAC
Формат/Информация : Advanced Audio Codec
Профиль формата : LC
Идентификатор кодека : 40
Продолжительность : 4 м. 4 с.
Вид битрейта : Переменный
Битрейт : 152 Кбит/сек
Максимальный битрейт : 176,4 Кбит/сек
Каналы : 2 канала
Расположение каналов : Front: L R
Частота : 44,1 КГц
Метод сжатия : С потерями
Размер потока : 4,43 Мбайт (3%)
Дата кодирования : UTC 2014-06-23 12:14:08
Дата пометки : UTC 2014-06-23 12:14:08 Общее
Полное имя : E:\VA - Летний марафон № 116 (Новые хитовые клипы)\Belinda ft. Pitbull - I Love You... Te Quiero (Official Video).mp4
Формат : MPEG-4
Профиль формата : Base Media
Идентификатор кодека : isom
Размер файла : 146 Мбайт
Продолжительность : 4 м. 26 с.
Общий поток : 4601 Кбит/сек
Дата кодирования : UTC 2014-06-23 01:40:04
Дата пометки : UTC 2014-06-23 01:40:04
Программа кодирования : Lavf54.63.104
Видео
Идентификатор : 1
Формат : AVC
Формат/Информация : Advanced Video Codec
Профиль формата : [email protected]
Параметр CABAC формата : Да
Параметр ReFrames формата : 1 кадр
Идентификатор кодека : avc1
Идентификатор кодека/Информация : Advanced Video Coding
Продолжительность : 4 м. 26 с.
Вид битрейта : Переменный
Битрейт : 4496 Кбит/сек
Ширина : 1920 пикс.
Высота : 1080 пикс.
Соотношение сторон : 16:9
Режим частоты кадров : Постоянный
Частота кадров : 25,000 кадр/сек
Цветовое пространство : YUV
Подвыборка цветности : 4:2:0
Битовая глубина : 8 бит
Тип развёртки : Прогрессивная
Бит/(Пиксели*Кадры) : 0.087
Размер потока : 141 Мбайт (97%)
Библиотека кодирования : x264 core 129
Настройки программы : cabac=1 / ref=1 / deblock=1:0:0 / analyse=0x1:0x131 / me=dia / subme=2 / psy=1 / psy_rd=1.00:0.00 / mixed_ref=0 / me_range=16 / chroma_me=1 / trellis=0 / 8x8dct=0 / cqm=0 / deadzone=21,11 / fast_pskip=1 / chroma_qp_offset=0 / threads=2 / lookahead_threads=1 / sliced_threads=0 / nr=0 / decimate=1 / interlaced=0 / bluray_compat=0 / constrained_intra=0 / bframes=0 / weightp=2 / keyint=250 / keyint_min=25 / scenecut=40 / intra_refresh=0 / rc_lookahead=40 / rc=abr / mbtree=1 / bitrate=4496 / ratetol=1.0 / qcomp=0.60 / qpmin=10 / qpmax=51 / qpstep=4 / ip_ratio=1.41 / aq=1:1.00
Дата кодирования : UTC 2014-06-23 01:40:04
Дата пометки : UTC 2014-06-23 01:40:04
Аудио
Идентификатор : 2
Формат : AAC
Формат/Информация : Advanced Audio Codec
Профиль формата : LC
Идентификатор кодека : 40
Продолжительность : 4 м. 26 с.
Вид битрейта : Переменный
Битрейт : 152 Кбит/сек
Максимальный битрейт : 176,4 Кбит/сек
Каналы : 2 канала
Расположение каналов : Front: L R
Частота : 44,1 КГц
Метод сжатия : С потерями
Размер потока : 4,82 Мбайт (3%)
Дата кодирования : UTC 2014-06-23 01:40:04
Дата пометки : UTC 2014-06-23 01:40:04 Общее
Полное имя : E:\VA - Летний марафон № 116 (Новые хитовые клипы)\Brianna - Vacant (Official Video).mp4
Формат : MPEG-4
Профиль формата : Base Media
Идентификатор кодека : isom
Размер файла : 103 Мбайт
Продолжительность : 3 м. 30 с.
Общий поток : 4111 Кбит/сек
Программа кодирования : Lavf55.19.102
Видео
Идентификатор : 1
Формат : AVC
Формат/Информация : Advanced Video Codec
Профиль формата : [email protected]
Параметр CABAC формата : Да
Параметр ReFrames формата : 2 кадра
Параметры GOP формата : M=1, N=9
Идентификатор кодека : avc1
Идентификатор кодека/Информация : Advanced Video Coding
Продолжительность : 3 м. 30 с.
Вид битрейта : Переменный
Битрейт : 3979 Кбит/сек
Ширина : 1920 пикс.
Высота : 1080 пикс.
Соотношение сторон : 16:9
Режим частоты кадров : Постоянный
Частота кадров : 25,000 кадр/сек
Цветовое пространство : YUV
Подвыборка цветности : 4:2:0
Битовая глубина : 8 бит
Тип развёртки : Прогрессивная
Бит/(Пиксели*Кадры) : 0.077
Размер потока : 99,8 Мбайт (97%)
Аудио
Идентификатор : 2
Формат : AAC
Формат/Информация : Advanced Audio Codec
Профиль формата : LC
Идентификатор кодека : 40
Продолжительность : 3 м. 30 с.
Вид битрейта : Постоянный
Битрейт : 126 Кбит/сек
Каналы : 2 канала
Расположение каналов : Front: L R
Частота : 44,1 КГц
Метод сжатия : С потерями
Размер потока : 3,15 Мбайт (3%) Общее
Полное имя : E:\VA - Летний марафон № 116 (Новые хитовые клипы)\Chayanne - Humanos a Marte (Official Video).mp4
Формат : MPEG-4
Профиль формата : Base Media
Идентификатор кодека : isom
Размер файла : 122 Мбайт
Продолжительность : 4 м. 30 с.
Общий поток : 3782 Кбит/сек
Дата кодирования : UTC 2014-06-12 22:37:08
Дата пометки : UTC 2014-06-12 22:37:08
Видео
Идентификатор : 1
Формат : AVC
Формат/Информация : Advanced Video Codec
Профиль формата : [email protected]
Параметр CABAC формата : Да
Параметр ReFrames формата : 2 кадра
Параметры GOP формата : M=3, N=17
Идентификатор кодека : avc1
Идентификатор кодека/Информация : Advanced Video Coding
Продолжительность : 4 м. 30 с.
Вид битрейта : Переменный
Битрейт : 3653 Кбит/сек
Ширина : 1920 пикс.
Высота : 1080 пикс.
Соотношение сторон : 16:9
Режим частоты кадров : Переменный
Частота кадров : 23,976 кадр/сек
Минимальная частота кадров : 23,974 кадр/сек
Максимальная частота кадров : 24,671 кадр/сек
Цветовое пространство : YUV
Подвыборка цветности : 4:2:0
Битовая глубина : 8 бит
Тип развёртки : Прогрессивная
Бит/(Пиксели*Кадры) : 0.073
Размер потока : 118 Мбайт (97%)
Дата кодирования : UTC 2014-06-12 22:37:08
Дата пометки : UTC 2014-06-12 22:37:08
Аудио
Идентификатор : 2
Формат : AAC
Формат/Информация : Advanced Audio Codec
Профиль формата : LC
Идентификатор кодека : 40
Продолжительность : 4 м. 30 с.
Вид битрейта : Переменный
Битрейт : 126 Кбит/сек
Каналы : 2 канала
Расположение каналов : Front: L R
Частота : 44,1 КГц
Метод сжатия : С потерями
Размер потока : 4,04 Мбайт (3%)
Дата кодирования : UTC 2014-06-12 22:36:59
Дата пометки : UTC 2014-06-12 22:36:59 Общее
Полное имя : E:\VA - Летний марафон № 116 (Новые хитовые клипы)\Christina Matsa - Aventura (Official Video).mp4
Формат : MPEG-4
Профиль формата : Base Media
Идентификатор кодека : isom
Размер файла : 82,1 Мбайт
Продолжительность : 3 м. 4 с.
Общий поток : 3732 Кбит/сек
Дата кодирования : UTC 2014-06-23 11:17:28
Дата пометки : UTC 2014-06-23 11:17:28
Видео
Идентификатор : 1
Формат : AVC
Формат/Информация : Advanced Video Codec
Профиль формата : [email protected]
Параметр CABAC формата : Да
Параметр ReFrames формата : 2 кадра
Идентификатор кодека : avc1
Идентификатор кодека/Информация : Advanced Video Coding
Продолжительность : 3 м. 4 с.
Вид битрейта : Переменный
Битрейт : 3604 Кбит/сек
Ширина : 1920 пикс.
Высота : 1080 пикс.
Соотношение сторон : 16:9
Режим частоты кадров : Постоянный
Частота кадров : 25,000 кадр/сек
Цветовое пространство : YUV
Подвыборка цветности : 4:2:0
Битовая глубина : 8 бит
Тип развёртки : Прогрессивная
Бит/(Пиксели*Кадры) : 0.070
Размер потока : 79,2 Мбайт (97%)
Дата кодирования : UTC 2014-06-23 11:17:28
Дата пометки : UTC 2014-06-23 11:17:28
Аудио
Идентификатор : 2
Формат : AAC
Формат/Информация : Advanced Audio Codec
Профиль формата : LC
Идентификатор кодека : 40
Продолжительность : 3 м. 4 с.
Вид битрейта : Переменный
Битрейт : 126 Кбит/сек
Каналы : 2 канала
Расположение каналов : Front: L R
Частота : 44,1 КГц
Метод сжатия : С потерями
Размер потока : 2,76 Мбайт (3%)
Дата кодирования : UTC 2014-06-23 11:17:25
Дата пометки : UTC 2014-06-23 11:17:25 Общее
Полное имя : E:\VA - Летний марафон № 116 (Новые хитовые клипы)\Justice Crew - Que Sera (Official Video).mp4
Формат : MPEG-4
Профиль формата : Base Media
Идентификатор кодека : isom
Размер файла : 59,1 Мбайт
Продолжительность : 3 м. 33 с.
Общий поток : 2317 Кбит/сек
Дата кодирования : UTC 2014-05-29 19:50:07
Дата пометки : UTC 2014-05-29 19:50:07
Видео
Идентификатор : 1
Формат : AVC
Формат/Информация : Advanced Video Codec
Профиль формата : [email protected]
Параметр CABAC формата : Да
Параметр ReFrames формата : 3 кадра
Параметры GOP формата : M=1, N=15
Идентификатор кодека : avc1
Идентификатор кодека/Информация : Advanced Video Coding
Продолжительность : 3 м. 33 с.
Duration_LastFrame : -39 мс.
Вид битрейта : Переменный
Битрейт : 2188 Кбит/сек
Ширина : 1920 пикс.
Высота : 1080 пикс.
Соотношение сторон : 16:9
Режим частоты кадров : Постоянный
Частота кадров : 25,000 кадр/сек
Цветовое пространство : YUV
Подвыборка цветности : 4:2:0
Битовая глубина : 8 бит
Тип развёртки : Прогрессивная
Бит/(Пиксели*Кадры) : 0.042
Размер потока : 55,8 Мбайт (94%)
Дата кодирования : UTC 2014-05-29 19:50:07
Дата пометки : UTC 2014-05-29 19:50:07
Аудио
Идентификатор : 2
Формат : AAC
Формат/Информация : Advanced Audio Codec
Профиль формата : LC
Идентификатор кодека : 40
Продолжительность : 3 м. 33 с.
Вид битрейта : Переменный
Битрейт : 126 Кбит/сек
Каналы : 2 канала
Расположение каналов : Front: L R
Частота : 44,1 КГц
Метод сжатия : С потерями
Размер потока : 3,20 Мбайт (5%)
Дата кодирования : UTC 2014-05-29 19:27:46
Дата пометки : UTC 2014-05-29 19:27:46 Общее
Полное имя : E:\VA - Летний марафон № 116 (Новые хитовые клипы)\Kevin Hellenbrand - Sparks Will Fly (Official Video).mp4
Формат : MPEG-4
Профиль формата : Base Media
Идентификатор кодека : isom
Размер файла : 122 Мбайт
Продолжительность : 3 м. 30 с.
Общий поток : 4871 Кбит/сек
Дата кодирования : UTC 2014-06-23 11:29:31
Дата пометки : UTC 2014-06-23 11:29:31
Программа кодирования : Lavf54.63.104
Видео
Идентификатор : 1
Формат : AVC
Формат/Информация : Advanced Video Codec
Профиль формата : [email protected]
Параметр CABAC формата : Да
Параметр ReFrames формата : 1 кадр
Идентификатор кодека : avc1
Идентификатор кодека/Информация : Advanced Video Coding
Продолжительность : 3 м. 30 с.
Вид битрейта : Переменный
Битрейт : 4496 Кбит/сек
Ширина : 1920 пикс.
Высота : 1080 пикс.
Соотношение сторон : 16:9
Режим частоты кадров : Постоянный
Частота кадров : 25,000 кадр/сек
Цветовое пространство : YUV
Подвыборка цветности : 4:2:0
Битовая глубина : 8 бит
Тип развёртки : Прогрессивная
Бит/(Пиксели*Кадры) : 0.087
Размер потока : 118 Мбайт (97%)
Библиотека кодирования : x264 core 129
Настройки программы : cabac=1 / ref=1 / deblock=1:0:0 / analyse=0x1:0x131 / me=dia / subme=2 / psy=1 / psy_rd=1.00:0.00 / mixed_ref=0 / me_range=16 / chroma_me=1 / trellis=0 / 8x8dct=0 / cqm=0 / deadzone=21,11 / fast_pskip=1 / chroma_qp_offset=0 / threads=2 / lookahead_threads=1 / sliced_threads=0 / nr=0 / decimate=1 / interlaced=0 / bluray_compat=0 / constrained_intra=0 / bframes=0 / weightp=2 / keyint=250 / keyint_min=25 / scenecut=40 / intra_refresh=0 / rc_lookahead=40 / rc=abr / mbtree=1 / bitrate=4496 / ratetol=1.0 / qcomp=0.60 / qpmin=10 / qpmax=51 / qpstep=4 / ip_ratio=1.41 / aq=1:1.00
Дата кодирования : UTC 2014-06-23 11:29:31
Дата пометки : UTC 2014-06-23 11:29:31
Аудио
Идентификатор : 2
Формат : AAC
Формат/Информация : Advanced Audio Codec
Профиль формата : LC
Идентификатор кодека : 40
Продолжительность : 3 м. 29 с.
Вид битрейта : Переменный
Битрейт : 151 Кбит/сек
Максимальный битрейт : 176,4 Кбит/сек
Каналы : 2 канала
Расположение каналов : Front: L R
Частота : 44,1 КГц
Метод сжатия : С потерями
Размер потока : 3,78 Мбайт (3%)
Дата кодирования : UTC 2014-06-23 11:29:31
Дата пометки : UTC 2014-06-23 11:29:31 Общее
Полное имя : E:\VA - Летний марафон № 116 (Новые хитовые клипы)\Luke Bryan - Roller Coaster (Official Video).mp4
Формат : MPEG-4
Профиль формата : Base Media
Идентификатор кодека : isom
Размер файла : 110 Мбайт
Продолжительность : 4 м. 23 с.
Общий поток : 3494 Кбит/сек
Дата кодирования : UTC 2014-06-17 16:51:33
Дата пометки : UTC 2014-06-17 16:51:33
Видео
Идентификатор : 1
Формат : AVC
Формат/Информация : Advanced Video Codec
Профиль формата : [email protected]
Параметр CABAC формата : Да
Параметр ReFrames формата : 2 кадра
Параметры GOP формата : M=1, N=63
Идентификатор кодека : avc1
Идентификатор кодека/Информация : Advanced Video Coding
Продолжительность : 4 м. 22 с.
Вид битрейта : Переменный
Битрейт : 3364 Кбит/сек
Ширина : 1920 пикс.
Высота : 1080 пикс.
Соотношение сторон : 16:9
Режим частоты кадров : Переменный
Частота кадров : 23,976 кадр/сек
Минимальная частота кадров : 23,974 кадр/сек
Максимальная частота кадров : 24,590 кадр/сек
Цветовое пространство : YUV
Подвыборка цветности : 4:2:0
Битовая глубина : 8 бит
Тип развёртки : Прогрессивная
Бит/(Пиксели*Кадры) : 0.068
Размер потока : 105 Мбайт (96%)
Дата кодирования : UTC 2014-06-17 16:51:33
Дата пометки : UTC 2014-06-17 16:51:33
Аудио
Идентификатор : 2
Формат : AAC
Формат/Информация : Advanced Audio Codec
Профиль формата : LC
Идентификатор кодека : 40
Продолжительность : 4 м. 23 с.
Вид битрейта : Переменный
Битрейт : 126 Кбит/сек
Каналы : 2 канала
Расположение каналов : Front: L R
Частота : 44,1 КГц
Метод сжатия : С потерями
Размер потока : 3,94 Мбайт (4%)
Дата кодирования : UTC 2014-06-17 16:51:06
Дата пометки : UTC 2014-06-17 16:51:06 Общее
Полное имя : E:\VA - Летний марафон № 116 (Новые хитовые клипы)\Miryam Millan - Beautiful People (Official Video).mp4
Формат : MPEG-4
Профиль формата : Base Media
Идентификатор кодека : isom
Размер файла : 88,7 Мбайт
Продолжительность : 3 м. 24 с.
Общий поток : 3642 Кбит/сек
Дата кодирования : UTC 2014-05-29 16:23:44
Дата пометки : UTC 2014-05-29 16:23:44
Видео
Идентификатор : 1
Формат : AVC
Формат/Информация : Advanced Video Codec
Профиль формата : [email protected]
Параметр CABAC формата : Да
Параметр ReFrames формата : 2 кадра
Идентификатор кодека : avc1
Идентификатор кодека/Информация : Advanced Video Coding
Продолжительность : 3 м. 24 с.
Вид битрейта : Переменный
Битрейт : 3514 Кбит/сек
Ширина : 1920 пикс.
Высота : 1080 пикс.
Соотношение сторон : 16:9
Режим частоты кадров : Постоянный
Частота кадров : 25,000 кадр/сек
Цветовое пространство : YUV
Подвыборка цветности : 4:2:0
Битовая глубина : 8 бит
Тип развёртки : Прогрессивная
Бит/(Пиксели*Кадры) : 0.068
Размер потока : 85,5 Мбайт (96%)
Дата кодирования : UTC 2014-05-29 16:23:44
Дата пометки : UTC 2014-05-29 16:23:44
Аудио
Идентификатор : 2
Формат : AAC
Формат/Информация : Advanced Audio Codec
Профиль формата : LC
Идентификатор кодека : 40
Продолжительность : 3 м. 24 с.
Вид битрейта : Переменный
Битрейт : 126 Кбит/сек
Каналы : 2 канала
Расположение каналов : Front: L R
Частота : 44,1 КГц
Метод сжатия : С потерями
Размер потока : 3,06 Мбайт (3%)
Дата кодирования : UTC 2014-05-29 16:23:26
Дата пометки : UTC 2014-05-29 16:23:26 Общее
Полное имя : E:\VA - Летний марафон № 116 (Новые хитовые клипы)\Mossano feat Ami - I Promise You (Official Video).mp4
Формат : MPEG-4
Профиль формата : Base Media
Идентификатор кодека : isom
Размер файла : 81,5 Мбайт
Продолжительность : 3 м. 34 с.
Общий поток : 3184 Кбит/сек
Программа кодирования : Lavf55.19.102
Видео
Идентификатор : 1
Формат : AVC
Формат/Информация : Advanced Video Codec
Профиль формата : [email protected]
Параметр CABAC формата : Да
Параметр ReFrames формата : 2 кадра
Параметры GOP формата : M=3, N=50
Идентификатор кодека : avc1
Идентификатор кодека/Информация : Advanced Video Coding
Продолжительность : 3 м. 34 с.
Вид битрейта : Переменный
Битрейт : 3053 Кбит/сек
Ширина : 1920 пикс.
Высота : 1080 пикс.
Соотношение сторон : 16:9
Режим частоты кадров : Постоянный
Частота кадров : 25,000 кадр/сек
Цветовое пространство : YUV
Подвыборка цветности : 4:2:0
Битовая глубина : 8 бит
Тип развёртки : Прогрессивная
Бит/(Пиксели*Кадры) : 0.059
Размер потока : 78,1 Мбайт (96%)
Аудио
Идентификатор : 2
Формат : AAC
Формат/Информация : Advanced Audio Codec
Профиль формата : LC
Идентификатор кодека : 40
Продолжительность : 3 м. 34 с.
Вид битрейта : Постоянный
Битрейт : 126 Кбит/сек
Каналы : 2 канала
Расположение каналов : Front: L R
Частота : 44,1 КГц
Метод сжатия : С потерями
Размер потока : 3,21 Мбайт (4%) Общее
Полное имя : E:\VA - Летний марафон № 116 (Новые хитовые клипы)\Nyla - Body Calling (Official Video).mp4
Формат : MPEG-4
Профиль формата : Base Media
Идентификатор кодека : isom
Размер файла : 97,6 Мбайт
Продолжительность : 3 м. 58 с.
Общий поток : 3429 Кбит/сек
Дата кодирования : UTC 2014-06-19 07:56:14
Дата пометки : UTC 2014-06-19 07:56:14
Видео
Идентификатор : 1
Формат : AVC
Формат/Информация : Advanced Video Codec
Профиль формата : [email protected]
Параметр CABAC формата : Да
Параметр ReFrames формата : 2 кадра
Идентификатор кодека : avc1
Идентификатор кодека/Информация : Advanced Video Coding
Продолжительность : 3 м. 58 с.
Вид битрейта : Переменный
Битрейт : 3299 Кбит/сек
Ширина : 1920 пикс.
Высота : 1080 пикс.
Соотношение сторон : 16:9
Режим частоты кадров : Переменный
Частота кадров : 23,976 кадр/сек
Минимальная частота кадров : 23,974 кадр/сек
Максимальная частота кадров : 24,516 кадр/сек
Цветовое пространство : YUV
Подвыборка цветности : 4:2:0
Битовая глубина : 8 бит
Тип развёртки : Прогрессивная
Бит/(Пиксели*Кадры) : 0.066
Размер потока : 93,9 Мбайт (96%)
Дата кодирования : UTC 2014-06-19 07:56:14
Дата пометки : UTC 2014-06-19 07:56:14
Аудио
Идентификатор : 2
Формат : AAC
Формат/Информация : Advanced Audio Codec
Профиль формата : LC
Идентификатор кодека : 40
Продолжительность : 3 м. 58 с.
Вид битрейта : Переменный
Битрейт : 126 Кбит/сек
Каналы : 2 канала
Расположение каналов : Front: L R
Частота : 44,1 КГц
Метод сжатия : С потерями
Размер потока : 3,58 Мбайт (4%)
Дата кодирования : UTC 2014-06-19 07:55:52
Дата пометки : UTC 2014-06-19 07:55:52 Общее
Полное имя : E:\VA - Летний марафон № 116 (Новые хитовые клипы)\Paul Janke ft. Tony T Multitalented - I Wanna Live In Brazil.mp4
Формат : MPEG-4
Профиль формата : Base Media
Идентификатор кодека : isom
Размер файла : 103 Мбайт
Продолжительность : 3 м. 23 с.
Общий поток : 4227 Кбит/сек
Дата кодирования : UTC 2014-06-22 09:41:42
Дата пометки : UTC 2014-06-22 09:41:42
Видео
Идентификатор : 1
Формат : AVC
Формат/Информация : Advanced Video Codec
Профиль формата : [email protected]
Параметр CABAC формата : Да
Параметр ReFrames формата : 2 кадра
Идентификатор кодека : avc1
Идентификатор кодека/Информация : Advanced Video Coding
Продолжительность : 3 м. 23 с.
Вид битрейта : Переменный
Битрейт : 4100 Кбит/сек
Ширина : 1920 пикс.
Высота : 1080 пикс.
Соотношение сторон : 16:9
Режим частоты кадров : Постоянный
Частота кадров : 25,000 кадр/сек
Цветовое пространство : YUV
Подвыборка цветности : 4:2:0
Битовая глубина : 8 бит
Тип развёртки : Прогрессивная
Бит/(Пиксели*Кадры) : 0.079
Размер потока : 99,6 Мбайт (97%)
Дата кодирования : UTC 2014-06-22 09:41:42
Дата пометки : UTC 2014-06-22 09:41:42
Аудио
Идентификатор : 2
Формат : AAC
Формат/Информация : Advanced Audio Codec
Профиль формата : LC
Идентификатор кодека : 40
Продолжительность : 3 м. 23 с.
Вид битрейта : Переменный
Битрейт : 126 Кбит/сек
Каналы : 2 канала
Расположение каналов : Front: L R
Частота : 44,1 КГц
Метод сжатия : С потерями
Размер потока : 3,05 Мбайт (3%)
Дата кодирования : UTC 2014-06-22 09:41:15
Дата пометки : UTC 2014-06-22 09:41:15 Общее
Полное имя : E:\VA - Летний марафон № 116 (Новые хитовые клипы)\Robin Thicke - Get Her Back (Official Video).mp4
Формат : MPEG-4
Профиль формата : Base Media
Идентификатор кодека : isom
Размер файла : 123 Мбайт
Продолжительность : 3 м. 43 с.
Общий поток : 4613 Кбит/сек
Дата кодирования : UTC 2014-06-19 18:33:37
Дата пометки : UTC 2014-06-19 18:33:37
Программа кодирования : Lavf54.63.104
Видео
Идентификатор : 1
Формат : AVC
Формат/Информация : Advanced Video Codec
Профиль формата : [email protected]
Параметр CABAC формата : Да
Параметр ReFrames формата : 1 кадр
Идентификатор кодека : avc1
Идентификатор кодека/Информация : Advanced Video Coding
Продолжительность : 3 м. 43 с.
Вид битрейта : Переменный
Битрейт : 4496 Кбит/сек
Ширина : 1920 пикс.
Высота : 1080 пикс.
Соотношение сторон : 16:9
Режим частоты кадров : Постоянный
Частота кадров : 25,000 кадр/сек
Цветовое пространство : YUV
Подвыборка цветности : 4:2:0
Битовая глубина : 8 бит
Тип развёртки : Прогрессивная
Бит/(Пиксели*Кадры) : 0.087
Размер потока : 119 Мбайт (97%)
Библиотека кодирования : x264 core 129
Настройки программы : cabac=1 / ref=1 / deblock=1:0:0 / analyse=0x1:0x131 / me=dia / subme=2 / psy=1 / psy_rd=1.00:0.00 / mixed_ref=0 / me_range=16 / chroma_me=1 / trellis=0 / 8x8dct=0 / cqm=0 / deadzone=21,11 / fast_pskip=1 / chroma_qp_offset=0 / threads=2 / lookahead_threads=1 / sliced_threads=0 / nr=0 / decimate=1 / interlaced=0 / bluray_compat=0 / constrained_intra=0 / bframes=0 / weightp=2 / keyint=250 / keyint_min=25 / scenecut=40 / intra_refresh=0 / rc_lookahead=40 / rc=abr / mbtree=1 / bitrate=4496 / ratetol=1.0 / qcomp=0.60 / qpmin=10 / qpmax=51 / qpstep=4 / ip_ratio=1.41 / aq=1:1.00
Дата кодирования : UTC 2014-06-19 18:33:37
Дата пометки : UTC 2014-06-19 18:33:37
Аудио
Идентификатор : 2
Формат : AAC
Формат/Информация : Advanced Audio Codec
Профиль формата : LC
Идентификатор кодека : 40
Продолжительность : 3 м. 43 с.
Вид битрейта : Переменный
Битрейт : 147 Кбит/сек
Максимальный битрейт : 176,4 Кбит/сек
Каналы : 2 канала
Расположение каналов : Front: L R
Частота : 44,1 КГц
Метод сжатия : С потерями
Размер потока : 3,92 Мбайт (3%)
Дата кодирования : UTC 2014-06-19 18:33:37
Дата пометки : UTC 2014-06-19 18:33:37 Общее
Полное имя : E:\VA - Летний марафон № 116 (Новые хитовые клипы)\Sisters Cap ft. Liz Hill - Hey Oh (Official Video).mp4
Формат : MPEG-4
Профиль формата : Base Media
Идентификатор кодека : isom
Размер файла : 118 Мбайт
Продолжительность : 3 м. 35 с.
Общий поток : 4611 Кбит/сек
Дата кодирования : UTC 2014-06-24 16:01:48
Дата пометки : UTC 2014-06-24 16:01:48
Программа кодирования : Lavf54.63.104
Видео
Идентификатор : 1
Формат : AVC
Формат/Информация : Advanced Video Codec
Профиль формата : [email protected]
Параметр CABAC формата : Да
Параметр ReFrames формата : 1 кадр
Идентификатор кодека : avc1
Идентификатор кодека/Информация : Advanced Video Coding
Продолжительность : 3 м. 35 с.
Вид битрейта : Переменный
Битрейт : 4496 Кбит/сек
Ширина : 1920 пикс.
Высота : 1080 пикс.
Соотношение сторон : 16:9
Режим частоты кадров : Постоянный
Частота кадров : 25,000 кадр/сек
Цветовое пространство : YUV
Подвыборка цветности : 4:2:0
Битовая глубина : 8 бит
Тип развёртки : Прогрессивная
Бит/(Пиксели*Кадры) : 0.087
Размер потока : 114 Мбайт (97%)
Библиотека кодирования : x264 core 129
Настройки программы : cabac=1 / ref=1 / deblock=1:0:0 / analyse=0x1:0x131 / me=dia / subme=2 / psy=1 / psy_rd=1.00:0.00 / mixed_ref=0 / me_range=16 / chroma_me=1 / trellis=0 / 8x8dct=0 / cqm=0 / deadzone=21,11 / fast_pskip=1 / chroma_qp_offset=0 / threads=2 / lookahead_threads=1 / sliced_threads=0 / nr=0 / decimate=1 / interlaced=0 / bluray_compat=0 / constrained_intra=0 / bframes=0 / weightp=2 / keyint=250 / keyint_min=25 / scenecut=40 / intra_refresh=0 / rc_lookahead=40 / rc=abr / mbtree=1 / bitrate=4496 / ratetol=1.0 / qcomp=0.60 / qpmin=10 / qpmax=51 / qpstep=4 / ip_ratio=1.41 / aq=1:1.00
Дата кодирования : UTC 2014-06-24 16:01:48
Дата пометки : UTC 2014-06-24 16:01:48
Аудио
Идентификатор : 2
Формат : AAC
Формат/Информация : Advanced Audio Codec
Профиль формата : LC
Идентификатор кодека : 40
Продолжительность : 3 м. 35 с.
Вид битрейта : Переменный
Битрейт : 149 Кбит/сек
Максимальный битрейт : 176,4 Кбит/сек
Каналы : 2 канала
Расположение каналов : Front: L R
Частота : 44,1 КГц
Метод сжатия : С потерями
Размер потока : 3,83 Мбайт (3%)
Дата кодирования : UTC 2014-06-24 16:01:48
Дата пометки : UTC 2014-06-24 16:01:48 Общее
Полное имя : E:\VA - Летний марафон № 116 (Новые хитовые клипы)\T. Mills - All I Wanna Do (Official Video).mp4
Формат : MPEG-4
Профиль формата : Base Media
Идентификатор кодека : isom
Размер файла : 93,3 Мбайт
Продолжительность : 3 м. 21 с.
Общий поток : 3878 Кбит/сек
Дата кодирования : UTC 2014-06-19 22:55:55
Дата пометки : UTC 2014-06-19 22:55:55
Видео
Идентификатор : 1
Формат : AVC
Формат/Информация : Advanced Video Codec
Профиль формата : [email protected]
Параметр CABAC формата : Да
Параметр ReFrames формата : 2 кадра
Идентификатор кодека : avc1
Идентификатор кодека/Информация : Advanced Video Coding
Продолжительность : 3 м. 21 с.
Вид битрейта : Переменный
Битрейт : 3749 Кбит/сек
Ширина : 1920 пикс.
Высота : 1080 пикс.
Соотношение сторон : 16:9
Режим частоты кадров : Переменный
Частота кадров : 23,976 кадр/сек
Минимальная частота кадров : 23,974 кадр/сек
Максимальная частота кадров : 24,272 кадр/сек
Цветовое пространство : YUV
Подвыборка цветности : 4:2:0
Битовая глубина : 8 бит
Тип развёртки : Прогрессивная
Бит/(Пиксели*Кадры) : 0.075
Размер потока : 90,1 Мбайт (97%)
Дата кодирования : UTC 2014-06-19 22:55:55
Дата пометки : UTC 2014-06-19 22:55:55
Аудио
Идентификатор : 2
Формат : AAC
Формат/Информация : Advanced Audio Codec
Профиль формата : LC
Идентификатор кодека : 40
Продолжительность : 3 м. 21 с.
Вид битрейта : Переменный
Битрейт : 126 Кбит/сек
Каналы : 2 канала
Расположение каналов : Front: L R
Частота : 44,1 КГц
Метод сжатия : С потерями
Размер потока : 3,02 Мбайт (3%)
Дата кодирования : UTC 2014-06-19 22:55:45
Дата пометки : UTC 2014-06-19 22:55:45 Общее
Полное имя : E:\VA - Летний марафон № 116 (Новые хитовые клипы)\Tom Boxer & Morena - Balans (Official Video).mp4
Формат : MPEG-4
Профиль формата : Base Media
Идентификатор кодека : isom
Размер файла : 101 Мбайт
Продолжительность : 3 м. 25 с.
Общий поток : 4132 Кбит/сек
Дата кодирования : UTC 2014-06-21 21:58:10
Дата пометки : UTC 2014-06-21 21:58:10
Видео
Идентификатор : 1
Формат : AVC
Формат/Информация : Advanced Video Codec
Профиль формата : [email protected]
Параметр CABAC формата : Да
Параметр ReFrames формата : 2 кадра
Идентификатор кодека : avc1
Идентификатор кодека/Информация : Advanced Video Coding
Продолжительность : 3 м. 25 с.
Вид битрейта : Переменный
Битрейт : 4003 Кбит/сек
Ширина : 1920 пикс.
Высота : 1080 пикс.
Соотношение сторон : 16:9
Режим частоты кадров : Постоянный
Частота кадров : 25,000 кадр/сек
Цветовое пространство : YUV
Подвыборка цветности : 4:2:0
Битовая глубина : 8 бит
Тип развёртки : Прогрессивная
Бит/(Пиксели*Кадры) : 0.077
Размер потока : 98,2 Мбайт (97%)
Дата кодирования : UTC 2014-06-21 21:58:10
Дата пометки : UTC 2014-06-21 21:58:10
Аудио
Идентификатор : 2
Формат : AAC
Формат/Информация : Advanced Audio Codec
Профиль формата : LC
Идентификатор кодека : 40
Продолжительность : 3 м. 25 с.
Вид битрейта : Переменный
Битрейт : 126 Кбит/сек
Каналы : 2 канала
Расположение каналов : Front: L R
Частота : 44,1 КГц
Метод сжатия : С потерями
Размер потока : 3,08 Мбайт (3%)
Дата кодирования : UTC 2014-06-21 21:57:39
Дата пометки : UTC 2014-06-21 21:57:39

Скриншоты:

--
Яндекс.Метрика
Рейтинг@Mail.ru