[ Сегодня на трекере фрилич! Идет свободное скачивание без начисления Download ]

Сердце дракона 3 (Заклятие друида) / Dragonheart 3 (The sorcerer's curse) (Колин Тиг) [iOS / Android / КПК] [2015 г., Фэнтези, WEB DLRip-AVC] [PashaUp] от R.G. RustorRipper's

 

Создавать темы 17-Фев-2015 20:39

Сердце дракона 3 (Заклятие друида) / Dragonheart 3 (The sorcerer's curse)
-
Год выпуска: 2015
Страна: США
Жанр: Фэнтези
Продолжительность: 01:37:05
Перевод: Любительский (одноголосый) [PashaUp]
Субтитры: Нет
Режиссёр: Колин Тиг
В ролях: Джулиан Моррис, Тамзин Мерчант, Джонджо О Нил, Джасса Ахлувалиа, Бен Кингсли

В условной, мифологической Британии идет война между рыцарями, охраняющими южные земли и кельтскими племенами с севера. Их разделяет знаменитый Адрианов Вал. Когда на землю падает звезда, юный и отважный воин Гарет решает отправиться на ее поиски. Ведь согласно легендам, там, куда упала звезда, хранятся несметные сокровища. Он перелезает через стену и оказывается в таинственном северном лесу, населенном колдунами, девами-воительницами и драконами...-- Качество: WEB DLRip-AVC
Формат: MP4
Видео кодек: H.264
Аудио кодек: AAC
Видео: 912x512 at 23.976 fps, AVC at 1 900 kbps
Аудио: АAС, 2.0 канала, 192 kbps, 48,0 Кгц
Автор рипа: Okukaracha

МедиаИнфо:

[font="'Constantia'"]Формат                                   : MPEG-4
Профиль формата                          : Base Media
Идентификатор кодека                     : isom
Размер файла                             : 1,42 Гбайт
Продолжительность                        : 1 ч. 37 м.
Режим общего битрейта                    : Переменный
Общий поток                              : 2095 Кбит/сек
Дата кодирования                         : UTC 2015-02-17 12:41:14
Дата пометки                             : UTC 2015-02-17 12:41:14
Видео
Идентификатор                            : 1
Формат                                   : AVC
Формат/Информация                        : Advanced Video Codec
Профиль формата                          : [email protected]
Параметр CABAC формата                   : Да
Параметр ReFrames формата                : 8 кадров
Идентификатор кодека                     : avc1
Идентификатор кодека/Информация          : Advanced Video Coding
Продолжительность                        : 1 ч. 37 м.
Битрейт                                  : 1900 Кбит/сек
Максимальный битрейт                     : 9639 Кбит/сек
Ширина                                   : 912 пикселей
Высота                                   : 512 пикселей
Соотношение сторон                       : 16:9
Режим частоты кадров                     : Постоянный
Частота кадров                           : 23,976 кадра/сек
Цветовое пространство                    : YUV
Субдискретизация насыщенности            : 4:2:0
Битовая глубина                          : 8 бит
Тип развёртки                            : Прогрессивная
Бит/(Пиксели*Кадры)                      : 0.170
Размер потока                            : 1,29 Гбайт (91%)
Библиотека кодирования                   : x264 core 130 r2273 b3065e6
Настройки программы                      : cabac=1 / ref=8 / deblock=1:-2:-2 / analyse=0x3:0x133 / me=umh / subme=11 / psy=1 / psy_rd=1.00:0.10 / mixed_ref=1 / me_range=32 / chroma_me=1 / trellis=2 / 8x8dct=1 / cqm=0 / deadzone=21,11 / fast_pskip=0 / chroma_qp_offset=-3 / threads=6 / lookahead_threads=1 / sliced_threads=0 / nr=0 / decimate=1 / interlaced=0 / bluray_compat=0 / constrained_intra=0 / bframes=3 / b_pyramid=2 / b_adapt=2 / b_bias=0 / direct=3 / weightb=1 / open_gop=0 / weightp=2 / keyint=240 / keyint_min=23 / scenecut=40 / intra_refresh=0 / rc_lookahead=50 / rc=2pass / mbtree=1 / bitrate=1900 / ratetol=1.0 / qcomp=0.60 / qpmin=0 / qpmax=69 / qpstep=4 / cplxblur=20.0 / qblur=0.5 / ip_ratio=1.40 / aq=1:1.00
Дата кодирования                         : UTC 2015-02-17 12:41:14
Дата пометки                             : UTC 2015-02-17 12:42:24
Аудио
Идентификатор                            : 2
Формат                                   : AAC
Формат/Информация                        : Advanced Audio Codec
Профиль формата                          : LC
Идентификатор кодека                     : 40
Продолжительность                        : 1 ч. 37 м.
Вид битрейта                             : Переменный
Битрейт                                  : 192 Кбит/сек
Максимальный битрейт                     : 199 Кбит/сек
Каналы                                   : 2 канала
Расположение каналов                     : Front: L R
Частота                                  : 48,0 КГц
Метод сжатия                             : С потерями
Размер потока                            : 133 Мбайт (9%)
[/font]

Скриншоты:

Яндекс.Метрика
Рейтинг@Mail.ru