Елена Ваенга - Королева [2014, Авторская песня, HDCam 1080p]

 

Создавать темы 17-Фев-2015 20:27

Елена Ваенга - Королева
Жанр: Авторская песня
Продолжительность: 05:00
Год выпуска: 2014
Описание:
Монтаж песни "Королева". БКЗ "Октябрьский" 25.09.2014
Качество: HDCam 1080p
Контейнер: MP4
Видео: Advanced Video Codec, 1920х1080p, 24.7 Mbps, 50 fps
Аудио: Advanced Audio Codec, 253 Kbps, 48.0 KHz, 2 channels

Отчёт MediaInfo / BDInfo

GeneralComplete name                            : D:\Torrent\Королева.mp4Format                                   : MPEG-4Format profile                           : Base Media / Version 2Codec ID                                 : mp42File size                                : 892 MiBDuration                                 : 4mn 59sOverall bit rate mode                    : VariableOverall bit rate                         : 25.0 MbpsEncoded date                             : UTC 2014-10-16 13:08:06Tagged date                              : UTC 2014-10-16 13:08:41©TIM                                     : 00:00:35:32©TSC                                     : 50©TSZ                                     : 1
VideoID                                       : 1Format                                   : AVCFormat/Info                              : Advanced Video CodecFormat profile                           : [email protected] settings, CABAC                   : YesFormat settings, ReFrames                : 3 framesFormat settings, GOP                     : M=4, N=50Codec ID                                 : avc1Codec ID/Info                            : Advanced Video CodingDuration                                 : 4mn 59sBit rate                                 : 24.7 MbpsWidth                                    : 1 920 pixelsHeight                                   : 1 080 pixelsDisplay aspect ratio                     : 16:9Frame rate mode                          : ConstantFrame rate                               : 50.000 fpsStandard                                 : PALColor space                              : YUVChroma subsampling                       : 4:2:0Bit depth                                : 8 bitsScan type                                : ProgressiveBits/(Pixel*Frame)                       : 0.238Stream size                              : 883 MiB (99%)Language                                 : EnglishEncoded date                             : UTC 2014-10-16 13:08:06Tagged date                              : UTC 2014-10-16 13:08:06
AudioID                                       : 2Format                                   : AACFormat/Info                              : Advanced Audio CodecFormat profile                           : LCCodec ID                                 : 40Duration                                 : 4mn 59sSource duration                          : 4mn 59sBit rate mode                            : VariableBit rate                                 : 253 KbpsMaximum bit rate                         : 351 KbpsChannel count                            : 2 channelsChannel positions                        : Front: L RSampling rate                            : 48.0 KHzCompression mode                         : LossyStream size                              : 9.05 MiB (1%)Source stream size                       : 9.05 MiB (1%)Language                                 : EnglishEncoded date                             : UTC 2014-10-16 13:08:06Tagged date                              : UTC 2014-10-16 13:08:06mdhd_Duration                            : 299627

Скриншоты:

Яндекс.Метрика
Рейтинг@Mail.ru