[ Сегодня на трекере фрилич! Идет свободное скачивание без начисления Download ]

Элитное общество / The Bling Ring (София Коппола / Sofia Coppola) [2013, США, Великобритания, Франция, Германия, Япония, драма, криминал, BDRip] Dub

 

Создавать темы 04-Окт-2013 19:20

Элитное общество / The Bling Ring
Страна: США, Великобритания, Франция, Германия, Япония
Жанр: драма, криминал
Год выпуска: 2013
Продолжительность: 01:30:33

Перевод: Профессиональный (дублированный)
Cубтитры: нет
Оригинальная аудиодорожка:
нет
-Режиссер: София Коппола / Sofia Coppola
В ролях: Израэль Бруссар, Кэти Чанг, Таисса Фармига, Клер Элис Жюльен, Джорджия Рок, Эмма Уотсон, Лесли Манн, Карлос Миранда, Гэвин Россдэйл, Стэйси Эдвардс
Описание: В поисках адреналина и приключений пятеро отчаянных подростков ради прикола стали навещать богатые особняки в окрестностях Голливуда. Наведываясь в гости к Линдси Лохан, Орландо Блуму, Пэрис Хилтон и другим голливудским звездам, девушки, конечно, больше интересовались дизайнерской одеждой и драгоценностями, а юноши — просто деньгами. Совершив десять краж со взломом, ребятки награбили больше трех миллионов долларов…
-Релиз:
Качество: BDRip (источник: HDClub / BDRemux / 1080p)
Формат видео: AVI-Видео: 704x384 (2.37:1), 23.976 fps, XviD build 65 ~1906 kbps avg, 0.29 bit/pixel
Аудио: 48 kHz, AC3 Dolby Digital, 3/2 (L,C,R,l,r) + LFE ch, ~384 kbps avg
-Сэмпл|KinoPoisk-

MediaInfo:

Format : AVI
Format/Info : Audio Video Interleave
File size : 1.45 GiB
Duration : 1h 30mn
Overall bit rate : 2 299 Kbps
Writing application : VirtualDubMod 1.5.10.2 (build 2540/release)
Video
ID : 0
Format : MPEG-4 Visual
Format profile : Advanced [email protected]
Format settings, BVOP : 1
Format settings, QPel : No
Format settings, GMC : No warppoints
Format settings, Matrix : Custom
Codec ID : XVID
Codec ID/Hint : XviD
Duration : 1h 30mn
Bit rate : 1 907 Kbps
Width : 704 pixels
Height : 384 pixels
Display aspect ratio : 1.85:1
Frame rate : 23.976 fps
Color space : YUV
Chroma subsampling : 4:2:0
Bit depth : 8 bits
Scan type : Progressive
Compression mode : Lossy
Bits/(Pixel*Frame) : 0.294
Stream size : 1.21 GiB (83%)
Writing library : XviD 65
Audio
ID : 1
Format : AC-3
Format/Info : Audio Coding 3
Mode extension : CM (complete main)
Format settings, Endianness : Big
Codec ID : 2000
Duration : 1h 30mn
Bit rate mode : Constant
Bit rate : 384 Kbps
Channel(s) : 6 channels
Channel positions : Front: L C R, Side: L R, LFE
Sampling rate : 48.0 KHz
Bit depth : 16 bits
Compression mode : Lossy
Stream size : 248 MiB (17%)
Alignment : Split accross interleaves
Interleave, duration : 42 ms (1.00 video frame)
Interleave, preload duration : 500 ms

Скриншоты:


Создавать темы 26-Янв-2016 20:30 (спустя 2 года 3 месяца)

Топик был перенесен из форума Зарубежные Новинки (HD*Rip/LQ, DVDRip) в форум Зарубежные Фильмы (HD*Rip/LQ, DVDRip, SATRip, VHSRip)
T_O_M
Яндекс.Метрика
Рейтинг@Mail.ru