(Rock, Classic Rock) VA - Melodic Rock (Volume 9) 15 Years Later (2CD) - 2012 [FLAC, image+.cue, lossless]

 

Создавать темы 16-Фев-2015 18:49

-Melodic Rock (Volume 9) 15 Years Later (2CD)-- Год издания: 2012
Страна: ---
Жанр: Rock, Classic Rock
Продолжительность: 02:39:19-Лейбл издания: Melodic Rock Records
Тип альбома: Compilation
Страна-выпуска диска: Australia
Номер по каталогу: MRCD9
Формат: FLAC
Битрейт аудио: lossless
Тип рипа: image+.cue
Наличие сканов в содержимом раздачи: да

Трэклист

CD 1 | 01:19:53

01. Melodic Rock Orchestra - Melody Rock (06:04)
02. Joe Lynn Turner (feat. Chris Antblad) - Out There (03:22)
03. Sammy Hagar - Fallen From Grace (04:28)
04. Erik Martensson - A Different Drum (04:10)
05. Beggars & Thieves - Home (04:17)
06. Mecca - Say The World (03:48)
07. Marc Scherer (feat. Jim Peterik) - Change Everything (04:15)
08. Michael Bates - More Than A Feeling (04:27)
09. Brett Walker - What About You (03:57)
10. Robert Sall (feat. Lars Safsund) - Worth Fighting For (04:55)
11. Crazy Lixx - Lights Out (03:11)
12. HarleQeen - All The Way (03:32)
13. Kelly Keagy - Soul To Call My Own (04:55)
14. Hicks - Mamas Kitchen (03:22)
15. Vic Heart (feat. Tommy Denander) - One Day Left (03:09)
16. Fran Cosmo & Bruce Smith - Highway In Your Eyes (04:25)
17. Chasing Violets (feat. Philip Bardowell) - No Margin For Error (05:05)
18. Auras - Take It To The Limit (04:27)
19. Mike Tramp - When The Children Cry (Orchestral Version) (04:14)

CD 2 | 01:19:26

01. Liberty N Justice - 15 Years Later (An Ode To MelodicRock.com) (03:40)
02. Eden's Curse - Time To Breathe (04:48)
03. Tainted Nation - Never Promised You Anything (feat. Ted Poley) (03:48)
04. Bonrud - We Collide (03:45)
05. Danny Danzi - Countdown To Insanity (06:10)
06. Ten - The Darkness (04:22)
07. Redrum - You Can't Buy No Hero (MelodicRock Mix) (05:06)
08. Salute - No Way Out Of Here (04:15)
09. Vega - Here Comes The Rain (04:45)
10. Little America - Caught in the Rain (04:06)
11. Rock And Roll Sensation - Do What You Want (04:01)
12. Takara - Two Hearts (Demo) (03:45)
13. Robbie LaBlanc & Alan Friedman - Right On Time (05:28)
14. Shadowman - Angel Of Mercy (04:00)
15. Midnight Club - Taming The Ghosts (04:01)
16. House Of Shakira - Black Is White (04:23)
17. Talon - Rose Has Thorns (04:36)
18. Dennis Dries & Rick Chaddock of White Sister - Lonely Lover (Demo) (04:33)

Лог создания рипа

CD 1

Exact Audio Copy V1.0 beta 3 from 29. August 2011
EAC extraction logfile from 20. July 2013, 11:50
Various Artists / Melodic Rock - Volume 9 - 15 Years Later
Used drive  : SlimtypeDVD A  DS8A5SH   Adapter: 0  ID: 1
Read mode               : Secure
Utilize accurate stream : Yes
Defeat audio cache      : Yes
Make use of C2 pointers : No
Read offset correction                      : 6
Overread into Lead-In and Lead-Out          : No
Fill up missing offset samples with silence : Yes
Delete leading and trailing silent blocks   : No
Null samples used in CRC calculations       : Yes
Used interface                              : Native Win32 interface for Win NT & 2000
Used output format              : User Defined Encoder
Selected bitrate                : 320 kBit/s
Quality                         : High
Add ID3 tag                     : No
Command line compressor         : C:\Program Files (x86)\Exact Audio Copy\Flac\flac.exe
Additional command line options : -V -8 -T "Date=%year%" -T "Genre=%genre%" %source%
TOC of the extracted CD
Track |   Start  |  Length  | Start sector | End sector
---------------------------------------------------------
1  |  0:00.00 |  6:03.30 |         0    |    27254
2  |  6:03.30 |  3:21.18 |     27255    |    42347
3  |  9:24.48 |  4:27.56 |     42348    |    62428
4  | 13:52.29 |  4:09.26 |     62429    |    81129
5  | 18:01.55 |  4:16.19 |     81130    |   100348
6  | 22:17.74 |  3:47.54 |    100349    |   117427
7  | 26:05.53 |  4:14.12 |    117428    |   136489
8  | 30:19.65 |  4:26.71 |    136490    |   156510
9  | 34:46.61 |  3:56.18 |    156511    |   174228
10  | 38:43.04 |  4:54.07 |    174229    |   196285
11  | 43:37.11 |  3:10.64 |    196286    |   210599
12  | 46:48.00 |  3:31.26 |    210600    |   226450
13  | 50:19.26 |  4:54.40 |    226451    |   248540
14  | 55:13.66 |  3:21.21 |    248541    |   263636
15  | 58:35.12 |  3:08.46 |    263637    |   277782
16  | 61:43.58 |  4:24.41 |    277783    |   297623
17  | 66:08.24 |  5:04.01 |    297624    |   320424
18  | 71:12.25 |  4:26.14 |    320425    |   340388
19  | 75:38.39 |  4:13.68 |    340389    |   359431
Range status and errors
Selected range
Filename D:\My Music\VA - 2012 Melodic Rock - Volume 9 - 15 Years Later\Various Artists - Melodic Rock - Volume 9 - 15 Years Later.wav
Peak level 100.0 %
Extraction speed 5.2 X
Range quality 99.9 %
Test CRC 165A845A
Copy CRC 165A845A
Copy OK
No errors occurred
AccurateRip summary
Track  1  not present in database
Track  2  not present in database
Track  3  not present in database
Track  4  not present in database
Track  5  not present in database
Track  6  not present in database
Track  7  not present in database
Track  8  not present in database
Track  9  not present in database
Track 10  not present in database
Track 11  not present in database
Track 12  not present in database
Track 13  not present in database
Track 14  not present in database
Track 15  not present in database
Track 16  not present in database
Track 17  not present in database
Track 18  not present in database
Track 19  not present in database
None of the tracks are present in the AccurateRip database
End of status report

CD 2

Exact Audio Copy V1.0 beta 3 from 29. August 2011
EAC extraction logfile from 20. July 2013, 12:57
Various Artists / Melodic Rock - Volume 9 - 15 Years Later (CD 2)
Used drive  : SlimtypeDVD A  DS8A5SH   Adapter: 0  ID: 1
Read mode               : Secure
Utilize accurate stream : Yes
Defeat audio cache      : Yes
Make use of C2 pointers : No
Read offset correction                      : 6
Overread into Lead-In and Lead-Out          : No
Fill up missing offset samples with silence : Yes
Delete leading and trailing silent blocks   : No
Null samples used in CRC calculations       : Yes
Used interface                              : Native Win32 interface for Win NT & 2000
Used output format              : User Defined Encoder
Selected bitrate                : 320 kBit/s
Quality                         : High
Add ID3 tag                     : No
Command line compressor         : C:\Program Files (x86)\Exact Audio Copy\Flac\flac.exe
Additional command line options : -V -8 -T "Date=%year%" -T "Genre=%genre%" %source%
TOC of the extracted CD
Track |   Start  |  Length  | Start sector | End sector
---------------------------------------------------------
1  |  0:00.00 |  3:39.72 |         0    |    16496
2  |  3:39.72 |  4:47.63 |     16497    |    38084
3  |  8:27.60 |  3:47.29 |     38085    |    55138
4  | 12:15.14 |  3:44.74 |     55139    |    72012
5  | 16:00.13 |  6:09.36 |     72013    |    99723
6  | 22:09.49 |  4:21.03 |     99724    |   119301
7  | 26:30.52 |  5:05.65 |    119302    |   142241
8  | 31:36.42 |  4:14.63 |    142242    |   161354
9  | 35:51.30 |  4:44.53 |    161355    |   182707
10  | 40:36.08 |  4:05.73 |    182708    |   201155
11  | 44:42.06 |  4:00.74 |    201156    |   219229
12  | 48:43.05 |  3:44.41 |    219230    |   236070
13  | 52:27.46 |  5:27.10 |    236071    |   260605
14  | 57:54.56 |  3:59.47 |    260606    |   278577
15  | 61:54.28 |  4:00.28 |    278578    |   296605
16  | 65:54.56 |  4:22.58 |    296606    |   316313
17  | 70:17.39 |  4:35.46 |    316314    |   336984
18  | 74:53.10 |  4:32.50 |    336985    |   357434
Range status and errors
Selected range
Filename D:\My Music\VA - 2012 Melodic Rock - Volume 9 - 15 Years Later\CD2\Various Artists - Melodic Rock - Volume 9 - 15 Years Later (CD 2).wav
Peak level 100.0 %
Extraction speed 2.2 X
Range quality 100.0 %
Test CRC 7E2029A3
Copy CRC 7E2029A3
Copy OK
No errors occurred
AccurateRip summary
Track  1  not present in database
Track  2  not present in database
Track  3  not present in database
Track  4  not present in database
Track  5  not present in database
Track  6  not present in database
Track  7  not present in database
Track  8  not present in database
Track  9  not present in database
Track 10  not present in database
Track 11  not present in database
Track 12  not present in database
Track 13  not present in database
Track 14  not present in database
Track 15  not present in database
Track 16  not present in database
Track 17  not present in database
Track 18  not present in database
None of the tracks are present in the AccurateRip database
End of status report

Индексная карта (non-compilant .cue)

CD 1

REM GENRE "Hard Rock / AOR"
REM DATE 2012
REM DISCID 0912B813
REM COMMENT "ExactAudioCopy v1.0b3"
PERFORMER "Various Artists"
TITLE "Melodic Rock - Volume 9 - 15 Years Later"
FILE "Various Artists - Melodic Rock - Volume 9 - 15 Years Later.flac" WAVE
TRACK 01 AUDIO
TITLE "Melodic Rock Orchestra - Melody Rock"
PERFORMER "Various Artists"
INDEX 01 00:00:00
TRACK 02 AUDIO
TITLE "Joe Lynn Turner (feat. Chris Antblad) - Out There"
PERFORMER "Various Artists"
INDEX 01 06:03:30
TRACK 03 AUDIO
TITLE "Sammy Hagar - Fallen From Grace"
PERFORMER "Various Artists"
INDEX 01 09:24:48
TRACK 04 AUDIO
TITLE "Erik Martensson - A Different Drum"
PERFORMER "Various Artists"
INDEX 01 13:52:29
TRACK 05 AUDIO
TITLE "Beggars & Thieves - Home"
PERFORMER "Various Artists"
INDEX 01 18:01:55
TRACK 06 AUDIO
TITLE "Mecca - Say The World"
PERFORMER "Various Artists"
INDEX 01 22:17:74
TRACK 07 AUDIO
TITLE "Marc Scherer (feat. Jim Peterik) - Change Everything"
PERFORMER "Various Artists"
INDEX 01 26:05:53
TRACK 08 AUDIO
TITLE "Michael Bates - More Than A Feeling"
PERFORMER "Various Artists"
INDEX 01 30:19:65
TRACK 09 AUDIO
TITLE "Brett Walker - What About You"
PERFORMER "Various Artists"
INDEX 01 34:46:61
TRACK 10 AUDIO
TITLE "Robert Sall (feat. Lars Safsund) - Worth Fighting For"
PERFORMER "Various Artists"
INDEX 01 38:43:04
TRACK 11 AUDIO
TITLE "Crazy Lixx - Lights Out"
PERFORMER "Various Artists"
INDEX 01 43:37:11
TRACK 12 AUDIO
TITLE "HarleQeen - All The Way"
PERFORMER "Various Artists"
INDEX 01 46:48:00
TRACK 13 AUDIO
TITLE "Kelly Keagy - Soul To Call My Own"
PERFORMER "Various Artists"
INDEX 01 50:19:26
TRACK 14 AUDIO
TITLE "Hicks - Mamas Kitchen"
PERFORMER "Various Artists"
INDEX 01 55:13:66
TRACK 15 AUDIO
TITLE "Vic Heart (feat. Tommy Denander) - One Day Left"
PERFORMER "Various Artists"
INDEX 01 58:35:12
TRACK 16 AUDIO
TITLE "Fran Cosmo & Bruce Smith - Highway In Your Eyes"
PERFORMER "Various Artists"
INDEX 01 61:43:58
TRACK 17 AUDIO
TITLE "Chasing Violets (feat. Philip Bardowell) - No Margin For Error"
PERFORMER "Various Artists"
INDEX 01 66:08:24
TRACK 18 AUDIO
TITLE "Auras - Take It To The Limit"
PERFORMER "Various Artists"
INDEX 01 71:12:25
TRACK 19 AUDIO
TITLE "Mike Tramp - When The Children Cry (Orchestral Version)"
PERFORMER "Various Artists"
INDEX 01 75:38:39

CD 2

REM GENRE "Hard Rock / AOR"
REM DATE 2012
REM DISCID 20129D12
REM COMMENT "ExactAudioCopy v1.0b3"
PERFORMER "Various Artists"
TITLE "Melodic Rock - Volume 9 - 15 Years Later (CD 2)"
FILE "Various Artists - Melodic Rock - Volume 9 - 15 Years Later (CD 2).flac" WAVE
TRACK 01 AUDIO
TITLE "Liberty N Justice - 15 Years Later (An Ode To MelodicRock.com)"
PERFORMER "Various Artists"
INDEX 01 00:00:00
TRACK 02 AUDIO
TITLE "Eden's Curse - Time To Breathe"
PERFORMER "Various Artists"
INDEX 01 03:39:72
TRACK 03 AUDIO
TITLE "Tainted Nation - Never Promised You Anything (feat. Ted Poley)"
PERFORMER "Various Artists"
INDEX 01 08:27:60
TRACK 04 AUDIO
TITLE "Bonrud - We Collide"
PERFORMER "Various Artists"
INDEX 01 12:15:14
TRACK 05 AUDIO
TITLE "Danny Danzi - Countdown To Insanity"
PERFORMER "Various Artists"
INDEX 01 16:00:13
TRACK 06 AUDIO
TITLE "Ten - The Darkness"
PERFORMER "Various Artists"
INDEX 01 22:09:49
TRACK 07 AUDIO
TITLE "Redrum - You Can't Buy No Hero (MelodicRock Mix)"
PERFORMER "Various Artists"
INDEX 01 26:30:52
TRACK 08 AUDIO
TITLE "Salute - No Way Out Of Here"
PERFORMER "Various Artists"
INDEX 01 31:36:42
TRACK 09 AUDIO
TITLE "Vega - Here Comes The Rain"
PERFORMER "Various Artists"
INDEX 01 35:51:30
TRACK 10 AUDIO
TITLE "Little America - Caught in the Rain"
PERFORMER "Various Artists"
INDEX 01 40:36:08
TRACK 11 AUDIO
TITLE "Rock And Roll Sensation - Do What You Want"
PERFORMER "Various Artists"
INDEX 01 44:42:06
TRACK 12 AUDIO
TITLE "Takara - Two Hearts (Demo)"
PERFORMER "Various Artists"
INDEX 01 48:43:05
TRACK 13 AUDIO
TITLE "Robbie LaBlanc & Alan Friedman - Right On Time"
PERFORMER "Various Artists"
INDEX 01 52:27:46
TRACK 14 AUDIO
TITLE "Shadowman - Angel Of Mercy"
PERFORMER "Various Artists"
INDEX 01 57:54:56
TRACK 15 AUDIO
TITLE "Midnight Club - Taming The Ghosts"
PERFORMER "Various Artists"
INDEX 01 61:54:28
TRACK 16 AUDIO
TITLE "House Of Shakira - Black Is White"
PERFORMER "Various Artists"
INDEX 01 65:54:56
TRACK 17 AUDIO
TITLE "Talon - Rose Has Thorns"
PERFORMER "Various Artists"
INDEX 01 70:17:39
TRACK 18 AUDIO
TITLE "Dennis Dries & Rick Chaddock of White Sister - Lonely Lover (Demo)"
PERFORMER "Various Artists"
INDEX 01 74:53:10

Лог Audiochecker

CD 1

AUDIOCHECKER v2.0 beta (build 457) - by Dester - [email protected]
~~~~~~~~~~~~~~~~~~~~~~~~~~~~~~~~~~
Started at: понедельник, 16. 02. 2015. - 18:07.55
1 file found
1 -===- D:\Torrent files\VA - Melodic Rock [Volume 9-15 Years Later] [2012 MelodicRock Records] FLAC\CD1\Various Artists - Melodic Rock - Volume 9 - 15 Years Later.flac
Extracted successfully
Conclusion: this track is CDDA with probability 100%
Tempfile successfully deleted.
Finished at: понедельник, 16. 02. 2015. - 18:11.54 (operation time: 0:03.59)

CD 2

AUDIOCHECKER v2.0 beta (build 457) - by Dester - [email protected]
~~~~~~~~~~~~~~~~~~~~~~~~~~~~~~~~~~
Started at: понедельник, 16. 02. 2015. - 18:12.18
1 file found
1 -===- D:\Torrent files\VA - Melodic Rock [Volume 9-15 Years Later] [2012 MelodicRock Records] FLAC\CD2\Various Artists - Melodic Rock - Volume 9 - 15 Years Later (CD 2).flac
Extracted successfully
Conclusion: this track is CDDA with probability 100%
Tempfile successfully deleted.
Finished at: понедельник, 16. 02. 2015. - 18:16.09 (operation time: 0:03.50)

Скриншот спектра частот

--Не забываем говорить
Яндекс.Метрика
Рейтинг@Mail.ru