Восход / Rise (Мэк Линдон) [2014 г., Драма, Криминал]WEB-DL

 

Создавать темы 15-Фев-2015 22:40

-Восход / Rise(2014) WEB-DL [H.264/720p-LQ] [VO]- Режиссер: Мэк Линдон
Год выпуска: 2014
Жанр: Драма, Криминал
Продолжительность: 01:42:41
Производство: Австралия, Vision Films Australia
Описание фильма:
История, основанная на реальных событиях, о молодом медбрате, ошибочно осужденном в изнасиловании. Лишенный своей карьеры и свободы, Уилл вынужден выживать в тюрьме строгого режима. Сюжет фильма развивается вокруг маловероятной дружбы с закаленным и опасным преступником Джимми и правовой битвы известного адвоката, который должен вернуть Уиллу его честное имя, найдя доказательства его невиновности.
Актеры: Джессика Грин, Стефани Мэй, Мартин Сакс, Рис Милн, Tade Adepoyibi, Камерон Колфилд, Джемма Лорелл, Джеймс Кирни, Курт Стоуэрс, Рози Кеог
Дата мировой премьеры: 20 февраля 2015
Качество видео: WEB-DL
Перевод: Двуголосый закадровый, любительский
Озвучка / Автор перевода: RAIM & NASTR
Видеокодек: MPEG-4 AVC/H.264
Битрейт видео: ~4135 Кбит/с
Размер кадра: 1280x540
Аудио 1: Русский - AC3 2.0, 192 kb/s (RAIM & NASTR)
Аудио 2: Английский - AC3 5.1, 384 kb/s (Оригинал)

Mediainfo:

General
Unique ID : 186480526415363022536907836284693029540 (0x8C4AD7CDFC5F0B09AF6652D0FD76A2A4)
Complete name : D:\Downloads\Rise.2014.L2.WEB-DL-720p.mkv
Format : Matroska
Format version : Version 4 / Version 2
File size : 3.45 GiB
Duration : 1h 42mn
Overall bit rate : 4 807 Kbps
Encoded date : UTC 2015-02-14 22:43:40
Writing application : mkvmerge v6.5.0 ('Isn't she lovely') built on Oct 20 2013 12:50:05
Writing library : libebml v1.3.0 + libmatroska v1.4.1
Video
ID : 1
Format : AVC
Format/Info : Advanced Video Codec
Format profile : [email protected]
Format settings, CABAC : No
Format settings, ReFrames : 2 frames
Codec ID : V_MPEG4/ISO/AVC
Duration : 1h 42mn
Bit rate : 4 135 Kbps
Width : 1 280 pixels
Height : 540 pixels
Display aspect ratio : 2.40:1
Frame rate mode : Constant
Frame rate : 24.000 fps
Color space : YUV
Chroma subsampling : 4:2:0
Bit depth : 8 bits
Scan type : Progressive
Bits/(Pixel*Frame) : 0.249
Stream size : 2.97 GiB (86%)
Language : English
Default : Yes
Forced : No
Color primaries : BT.709
Transfer characteristics : BT.709
Matrix coefficients : BT.709
Color range : Limited
Audio #1
ID : 2
Format : AC-3
Format/Info : Audio Coding 3
Mode extension : CM (complete main)
Format settings, Endianness : Big
Codec ID : A_AC3
Duration : 1h 42mn
Bit rate mode : Constant
Bit rate : 192 Kbps
Channel(s) : 2 channels
Channel positions : Front: L R
Sampling rate : 48.0 KHz
Bit depth : 16 bits
Compression mode : Lossy
Stream size : 141 MiB (4%)
Language : Russian
Default : Yes
Forced : No
Audio #2
ID : 3
Format : AC-3
Format/Info : Audio Coding 3
Mode extension : CM (complete main)
Format settings, Endianness : Big
Codec ID : A_AC3
Duration : 1h 42mn
Bit rate mode : Constant
Bit rate : 384 Kbps
Channel(s) : 6 channels
Channel positions : Front: L C R, Side: L R, LFE
Sampling rate : 48.0 KHz
Bit depth : 16 bits
Compression mode : Lossy
Stream size : 282 MiB (8%)
Language : English
Default : No
Forced : No
Menu
00:00:00.000 : en:Opening Sequence
00:07:31.000 : en:It's The Police
00:12:51.000 : en:Welcome Home Jimmy
00:18:35.000 : en:You Awake?
00:28:14.000 : en:That Your Mum?
00:36:53.000 : en:I Need You
00:41:30.000 : en:Jimmy's Yard
00:47:51.000 : en:That's It Fung!
00:54:46.000 : en:I Forgive You
00:58:55.000 : en:You're Up
01:06:57.000 : en:Jimmy's Mom
01:13:11.000 : en:Early Wake Up Call
01:19:15.000 : en:You Happy Sir?
01:23:09.000 : en:Staying Out Of Trouble
01:30:42.000 : en:Released
01:36:37.000 : en:End Credits
Скриншоты:
Яндекс.Метрика
Рейтинг@Mail.ru