[ Сегодня на трекере фрилич! Идет свободное скачивание без начисления Download ]

Пропаганда - Мелом (2001) TVRip | 60FPS

 

Создавать темы 15-Фев-2015 20:00

Пропаганда - МеломИсполнитель: Пропаганда
Название: Мелом
Год выхода: 2001
Продолжительность: 00:03:05--Кодек: AVC
Формат: MKV
Качество: TVRip
Видео: 864x448, 60,000 fps, 4912 kb/s
Аудио: MPEG Audio 128 Kbps, 2 channels, 44.1 KHz

MediaInfo

Общее
Уникальный идентификатор : 225306783400231541610865656210068259393 (0xA9808211B04BDAA58247990D6E22C241)
Полное имя : C:\Users\админ\Desktop\Пропаганда - Мелом.mkv
Формат : Matroska
Версия формата : Version 2
Размер файла : 114 Мбайт
Продолжительность : 3 м. 5 с.
Общий поток : 5143 Кбит/сек
Дата кодирования : UTC 2015-02-15 16:28:03
Программа кодирования : mkvmerge v7.5.0 ('Glass Culture') 32bit built on Jan 10 2015 09:41:31
Библиотека кодирования : libebml v1.3.1 + libmatroska v1.4.2
Видео
Идентификатор : 1
Формат : AVC
Формат/Информация : Advanced Video Codec
Профиль формата : [email protected]
Параметр CABAC формата : Да
Параметр ReFrames формата : 7 кадров
Идентификатор кодека : V_MPEG4/ISO/AVC
Продолжительность : 3 м. 5 с.
Битрейт : 4912 Кбит/сек
Ширина : 864 пикселя
Высота : 448 пикселей
Соотношение сторон : 1,929
Режим частоты кадров : Постоянный
Частота кадров : 60,000 кадров/сек
Цветовое пространство : YUV
Субдискретизация насыщенности : 4:2:0
Битовая глубина : 8 бит
Тип развёртки : Прогрессивная
Бит/(Пиксели*Кадры) : 0.212
Размер потока : 108 Мбайт (96%)
Библиотека кодирования : x264 core 144 r2525 40bb568
Настройки программы : cabac=1 / ref=7 / deblock=1:0:0 / analyse=0x1:0x111 / me=esa / subme=7 / psy=1 / psy_rd=1.40:0.30 / mixed_ref=1 / me_range=4 / chroma_me=1 / trellis=2 / 8x8dct=0 / cqm=0 / deadzone=21,11 / fast_pskip=1 / chroma_qp_offset=-4 / threads=12 / lookahead_threads=3 / sliced_threads=0 / nr=0 / decimate=1 / interlaced=0 / bluray_compat=0 / constrained_intra=0 / bframes=4 / b_pyramid=2 / b_adapt=2 / b_bias=0 / direct=1 / weightb=1 / open_gop=0 / weightp=2 / keyint=250 / keyint_min=25 / scenecut=40 / intra_refresh=0 / rc_lookahead=50 / rc=crf / mbtree=1 / crf=17.0 / qcomp=0.60 / qpmin=0 / qpmax=69 / qpstep=4 / ip_ratio=1.40 / aq=1:1.00
Default : Да
Forced : Нет
Аудио
Идентификатор : 2
Формат : MPEG Audio
Версия формата : Version 1
Профиль формата : Layer 3
Режим : Joint stereo
Расширение режима : MS Stereo
Идентификатор кодека : A_MPEG/L3
Идентификатор кодека/Подсказка : MP3
Продолжительность : 3 м. 5 с.
Вид битрейта : Постоянный
Битрейт : 128 Кбит/сек
Каналы : 2 канала
Частота : 44,1 КГц
Метод сжатия : С потерями
Размер потока : 2,83 Мбайт (2%)
Default : Да
Forced : Нет

Скриншоты

Яндекс.Метрика
Рейтинг@Mail.ru