Зачётный препод / Fack ju Göhte (2013) BDRemux [1080p]

 

Создавать темы 15-Фев-2015 09:42

-Зачётный препод / Fack ju Göhte (2013) BDRemux- Производство: Германия
Жанр: Комедия
Режиссер: Бора Дагтекин
Актеры: Элиас ЭмБарек, Каролине Херфурт, Катя Риман, Яна Палласке, Алвара Хёфельс, Йелла Хаазе, Макс фон Гробен, Анна-Лена Кленке, Гизем Эмре
Описание фильма:
Незадачливый грабитель банков Зеки Мюллер после тринадцати месяцев отсидки выходит из тюрьмы. Он отправляется на поиски награбленной добычи, которая была спрятана на стройке. Вместе с подружкой они думали, что там идёт всего-навсего прокладка труб. Каково же удивление горе-грабителя, когда он обнаруживает на нужном месте новенький школьный спортзал!
Чтобы добраться до награбленного, Зеки пытается устроиться на место школьного сторожа. Но в результате лёгкого недопонимания вместо этого его берут в качестве учителя на замену. Ему достаётся самый буйный и ненормальный класс во всей школе — 10«Б». Используя несколько необычные методы, бывший грабитель неожиданно находит общий язык с учениками. Одновременно с этим по ночам он пытается добраться до спрятанной добычи и влюбляется в коллегу-учительницу Лиси.
Дата мировой премьеры: 7 ноября 2013
Дата российской премьеры: 4 декабря 2014, «Ракета Релизинг»
Дата выхода DVD/Blu-ray релиза: 15 января 2015, «CD Land»
Продолжительность: 01:57:08
Качество видео: BDRemux [1080p]
Перевод: Дублированный, Одноголосый (М.Яроцкий)
Язык субтитров: Русский
Вид субтитров: Вшитые, отключаемые
Видео: MPEG-4 AVC Video, 1920x1080, 24869 Кбит/с
Аудио #1: AC3 448 Кбит/сек (6ch), 48,0 КГц [Русский, дублированный]
Аудио #2: DTS-HD HR 2046 Кбит/сек (6ch), 48,0 КГц [Русский, одноголосый - М.Яроцкий]
Аудио #3: DTS-HD HR 2046 Кбит/сек (6ch), 48,0 КГц [Немецкий]

MediaInfo:

Общее
Уникальный идентификатор                 : 189942885934702067762942513802046479166 (0x8EE5AB4F0514B8948C128319E06A1B3E)
Полное имя                               : ...\Зачётный.препод-Fack.ju.Göhte.2013.BDRemux.mkv
Формат                                   : Matroska
Версия формата                           : Version 4 / Version 2
Размер файла                             : 25,1 Гбайт
Продолжительность                        : 1 ч. 57 м.
Режим общего битрейта                    : Переменный
Общий поток                              : 30,7 Мбит/сек
Дата кодирования                         : UTC 2015-02-11 15:41:27
Программа кодирования                    : mkvmerge v7.3.0 ('Nouages') 64bit built on Oct 22 2014 18:53:34
Библиотека кодирования                   : libebml v1.3.0 + libmatroska v1.4.1
DURATION                                 : 01:57:07.947000000
NUMBER_OF_FRAMES                         : 658870
NUMBER_OF_BYTES                          : 1797397360
_STATISTICS_WRITING_APP                  : mkvmerge v7.3.0 ('Nouages') 64bit built on Oct 22 2014 18:53:34
_STATISTICS_WRITING_DATE_UTC             : 2015-02-11 15:41:27
_STATISTICS_TAGS                         : BPS DURATION NUMBER_OF_FRAMES NUMBER_OF_BYTES
Видео
Идентификатор                            : 1
Формат                                   : AVC
Формат/Информация                        : Advanced Video Codec
Профиль формата                          : [url=mailto:[email protected]][email protected][/url]
Параметр CABAC формата                   : Да
Параметр ReFrames формата                : 4 кадра
Идентификатор кодека                     : V_MPEG4/ISO/AVC
Продолжительность                        : 1 ч. 57 м.
Вид битрейта                             : Переменный
Битрейт                                  : 25,6 Мбит/сек
Максимальный битрейт                     : 35,0 Мбит/сек
Ширина                                   : 1920 пикселей
Высота                                   : 1080 пикселей
Соотношение сторон                       : 16:9
Режим частоты кадров                     : Постоянный
Частота кадров                           : 24,000 кадра/сек
Стандарт вещания                         : NTSC
Цветовое пространство                    : YUV
Субдискретизация насыщенности            : 4:2:0
Битовая глубина                          : 8 бит
Тип развёртки                            : Прогрессивная
Бит/(Пиксели*Кадры)                      : 0.514
Размер потока                            : 20,9 Гбайт (83%)
Default                                  : Да
Forced                                   : Нет
Основные цвета                           : BT.709
Характеристики трансфера                 : BT.709
Коэффициенты матрицы                     : BT.709
Аудио #1
Идентификатор                            : 2
Формат                                   : AC-3
Формат/Информация                        : Audio Coding 3
Расширение режима                        : CM (complete main)
Параметр Endianness формата              : Big
Идентификатор кодека                     : A_AC3
Продолжительность                        : 1 ч. 57 м.
Вид битрейта                             : Постоянный
Битрейт                                  : 448 Кбит/сек
Каналы                                   : 6 каналов
Расположение каналов                     : Front: L C R, Side: L R, LFE
Частота                                  : 48,0 КГц
Битовая глубина                          : 16 бит
Метод сжатия                             : С потерями
Размер потока                            : 375 Мбайт (1%)
Заголовок                                : DUB 5.1
Язык                                     : Russian
Default                                  : Да
Forced                                   : Нет
Аудио #2
Идентификатор                            : 3
Формат                                   : DTS
Формат/Информация                        : Digital Theater Systems
Профиль формата                          : HRA / Core
Режим                                    : 16
Параметр Endianness формата              : Big
Идентификатор кодека                     : A_DTS
Продолжительность                        : 1 ч. 57 м.
Вид битрейта                             : Постоянный
Битрейт                                  : 2046 Кбит/сек / 1509 Кбит/сек
Каналы                                   : 6 каналов
Расположение каналов                     : Front: L C R, Side: L R, LFE
Частота                                  : 48,0 КГц
Битовая глубина                          : 24 бит
Метод сжатия                             : С потерями
Размер потока                            : 1,67 Гбайт (7%)
Заголовок                                : М.Яроцкий
Язык                                     : Russian
Default                                  : Нет
Forced                                   : Нет
Аудио #3
Идентификатор                            : 4
Формат                                   : DTS
Формат/Информация                        : Digital Theater Systems
Профиль формата                          : HRA / Core
Режим                                    : 16
Параметр Endianness формата              : Big
Идентификатор кодека                     : A_DTS
Продолжительность                        : 1 ч. 57 м.
Вид битрейта                             : Постоянный
Битрейт                                  : 2046 Кбит/сек / 1509 Кбит/сек
Каналы                                   : 6 каналов
Расположение каналов                     : Front: L C R, Side: L R, LFE
Частота                                  : 48,0 КГц
Битовая глубина                          : 24 бит
Метод сжатия                             : С потерями
Размер потока                            : 1,67 Гбайт (7%)
Заголовок                                : German
Язык                                     : German
Default                                  : Нет
Forced                                   : Нет
Текст
Идентификатор                            : 5
Формат                                   : UTF-8
Идентификатор кодека                     : S_TEXT/UTF8
Идентификатор кодека/Информация          : UTF-8 Plain Text
Заголовок                                : RUS
Язык                                     : Russian
Default                                  : Да
Forced                                   : Нет

Скриншоты:

Яндекс.Метрика
Рейтинг@Mail.ru