[ Сегодня на трекере фрилич! Идет свободное скачивание без начисления Download ]

10000 часов / 10 000 timmar (2014) BDRip [720p] [VO]

 

Создавать темы 15-Фев-2015 09:39

-10000 часов / 10 000 timmar (2014) BDRip- Производство: Швеция, Way Creative Films
Жанр: Комедия
Режиссер: Йоахим Хеден / Joachim Hedén
Актеры: Питер Магнуссон, Карин Литман, Матильда фон Эссен, Джонни Бломквист, Кристиан Брэндон, Дэвид Карлссон
Описание фильма: Эрику Ханссону выпадает невероятная удача — он выигрывает в лотерее 25 тысяч шведских крон, но вместо того, чтобы погасить кредит, как желает жена, он решает посвятить жизнь футболу. Книга «10 000 часов» убеждает его, что, если приложить максимум усилий и потратить 10 тысяч часов, то можно добиться чего угодно. Правда это или нет, Эрику предстоит узнать…
Дата мировой премьеры: 4 апреля 2014
Продолжительность: 01:32:46
Качество видео: BDRip
Перевод: Одноголосый закадровый, любительский
Озвучка / Автор перевода: Andi
Видеокодек: MPEG-4 AVC
Битрейт видео: ~5 085 Кбит/с
Размер кадра: 1280x528
Аудио 1: Русский AC3, 6 ch, 448 Кбит/с
Аудио 2: Английский DTS, 6 ch, 1509 Кбит/с-

MediaInfo:

General
Complete name                    : E:\2015\10000.Chasov.2014.BDRip.720p.mkv
Format                           : Matroska
File size                        : 4.66 GiB
Duration                         : 1h 32mn
Overall bit rate                 : 7 186 Kbps
Encoded date                     : UTC 2014-08-31 10:43:00
Writing application              : mkvmerge v7.1.0 ('Good Love') 64bit built on Jul 27 2014 13:06:55
Writing library                  : libebml v1.3.0 + libmatroska v1.4.1
Video
ID                               : 1
Format                           : AVC
Format/Info                      : Advanced Video Codec
Format profile                   : [url=mailto:[email protected]][email protected][/url]
Format settings, CABAC           : Yes
Format settings, ReFrames        : 5 frames
Muxing mode                      : Container [email protected]
Codec ID                         : V_MPEG4/ISO/AVC
Duration                         : 1h 32mn
Bit rate                         : 5 085 Kbps
Nominal bit rate                 : 5 231 Kbps
Width                            : 1 280 pixels
Height                           : 528 pixels
Display aspect ratio             : 2.40:1
Frame rate                       : 24.000 fps
Resolution                       : 8 bits
Colorimetry                      : 4:2:0
Scan type                        : Progressive
Bits/(Pixel*Frame)               : 0.314
Stream size                      : 3.30 GiB (71%)
Writing library                  : x264 core 142 r2453kMod ea0ca51
Encoding settings                : cabac=1 / ref=5 / deblock=1:0:0 / analyse=0x3:0x133 / me=umh / subme=7 / psy=1 / fade_compensate=0.00 / psy_rd=1.00:0.00 / mixed_ref=1 / me_range=16 / chroma_me=1 / trellis=1 / 8x8dct=1 / cqm=0 / deadzone=21,11 / fast_pskip=0 / chroma_qp_offset=-2 / threads=18 / lookahead_threads=3 / sliced_threads=0 / nr=0 / decimate=1 / interlaced=0 / bluray_compat=0 / constrained_intra=0 / fgo=0 / bframes=3 / b_pyramid=2 / b_adapt=2 / b_bias=0 / direct=3 / weightb=1 / open_gop=0 / weightp=2 / keyint=250 / keyint_min=24 / scenecut=40 / intra_refresh=0 / rc_lookahead=50 / rc=2pass / mbtree=1 / bitrate=5231 / ratetol=1.0 / qcomp=0.60 / qpmin=0 / qpmax=69 / qpstep=4 / cplxblur=20.0 / qblur=0.5 / ip_ratio=1.40 / aq=1:1.00
Language                         : Swedish
Audio #1
ID                               : 2
Format                           : AC-3
Format/Info                      : Audio Coding 3
Codec ID                         : A_AC3
Duration                         : 1h 32mn
Bit rate mode                    : Constant
Bit rate                         : 448 Kbps
Channel(s)                       : 6 channels
Channel positions                : Front: L C R, Surround: L R, LFE
Sampling rate                    : 48.0 KHz
Stream size                      : 297 MiB (6%)
Language                         : Russian
Audio #2
ID                               : 3
Format                           : DTS
Format/Info                      : Digital Theater Systems
Codec ID                         : A_DTS
Duration                         : 1h 32mn
Bit rate mode                    : Constant
Bit rate                         : 1 510 Kbps
Channel(s)                       : 6 channels
Channel positions                : Front: L C R, Surround: L R, LFE
Sampling rate                    : 48.0 KHz
Resolution                       : 24 bits
Stream size                      : 1 002 MiB (21%)
Language                         : Swedish

Скриншоты:

Яндекс.Метрика
Рейтинг@Mail.ru