(Glam Rock,Rock) Slade - Greatest Hits 1972-1994 (3CD) - 2011 [FLAC, image+.cue, lossless]

 

Создавать темы 13-Фев-2015 19:27

-Slade / Greatest Hits 1972-1994 (3CD)-- Год издания: 2011
Страна: UK
Жанр: Glam Rock,Rock
Продолжительность: 03:56:33-Лейбл издания: ---
Тип альбома: Compilation
Страна-выпуска диска: ---
Номер по каталогу: ---
Формат: FLAC
Битрейт аудио: lossless
Тип рипа: image+.cue
Наличие сканов в содержимом раздачи: да

Трэклист

CD 1 | 01:18:40

01. Won't You Rock With Me (03:48)
02. Far Far Away (03:38)
03. Ooh La La in L.A. (03:53)
04. High And Dry (03:10)
05. Everyday (03:11)
06. Lock Up Your Daughters (03:34)
07. Look Wot You Dun (02:58)
08. M'hat, M'coat (01:43)
09. This Girl (03:19)
10. How Does It Feel (05:54)
11. We Won't Give In (03:39)
12. Cum On Feel The Noize (04:25)
13. Gudbuy T'Jane (03:33)
14. My Oh My (04:10)
15. Nobody's Fool (04:42)
16. Cum On Let's Party (02:47)
17. Don't Talk To Me About Love (02:29)
18. Don't Waste Your Time (03:31)
19. Fools Go Crazy (03:19)
20. Gudbuy Gudbuy (03:30)
21. Gotta Go Home (03:21)
22. 7 Year Bitch (04:17)

CD 2 | 01:18:06

01. Radio Wall Of Sound (03:48)
02. Bangin' Man (04:12)
03. Coz I Love You (03:25)
04. Harmony (03:45)
05. How D'You Ride (03:12)
06. I Don't Mind (03:07)
07. You Boyz Make Big Noize (Remix) (05:32)
08. I'm A Talker (03:14)
09. It's Your Body Not Your Mind (03:05)
10. Johnny Played The Guitar (03:24)
11. Let's Call It Quits (03:32)
12. Me And The Boys (02:43)
13. Night Starvation (03:06)
14. Nuts Bolts And Screws (02:33)
15. Pack Up Your Troubles (03:25)
16. Red Hot (03:31)
17. Sing Shout (Knock Your Self Out) (03:13)
18. That's What Friends Are For (03:19)
19. Time To Rock (04:10)
20. Walking On Water, Running On Alcohol (05:00)
21. Ginny, Ginny (03:42)
22. Hot Luv (03:20)

CD 3 | 01:19:48

01. Black & White World (03:17)
02. Chakeeta (02:29)
03. Did Your Mama Ever Tell Ya (03:07)
04. Hey Ho Wish You Well (05:19)
05. How Can It Be (03:00)
06. I Won't Let It 'Appen Agen (03:18)
07. L.A. Jinx (03:59)
08. Look At Last Night (03:07)
09. Merry XMas Everybody (03:28)
10. Skweeze Me, Pleeze Me (04:30)
11. All Join Hands (04:17)
12. I'm Mad (02:49)
13. Merry Xmas Now! (03:32)
14. Ruby Read (02:54)
15. You Boyz Make Big Noize (Instrumental) (03:02)
16. Run Runaway (03:46)
17. My Friend Stan (02:42)
18. Mama Weer All Crazee Now (03:45)
19. Miles Out To Sea (03:48)
20. In The Doghouse (02:45)
21. Get Down And Get With It (03:50)
22. I'll Be There (04:33)
23. Let's Dance ('88 Remix) (02:41)

Лог создания рипа

CD 1

Exact Audio Copy V1.0 beta 1 from 15. November 2010
EAC extraction logfile from 21. August 2012, 17:05
Slade / Greatest Hits 1972-1994
Used drive  : ATAPI   iHAP122   W   Adapter: 1  ID: 0
Read mode               : Secure
Utilize accurate stream : Yes
Defeat audio cache      : Yes
Make use of C2 pointers : No
Read offset correction                      : 6
Overread into Lead-In and Lead-Out          : No
Fill up missing offset samples with silence : Yes
Delete leading and trailing silent blocks   : No
Null samples used in CRC calculations       : Yes
Used interface                              : Native Win32 interface for Win NT & 2000
Used output format : Internal WAV Routines
Sample format      : 44.100 Hz; 16 Bit; Stereo
TOC of the extracted CD
Track |   Start  |  Length  | Start sector | End sector
---------------------------------------------------------
1  |  0:00.00 |  3:47.13 |         0    |    17037
2  |  3:47.13 |  3:37.48 |     17038    |    33360
3  |  7:24.61 |  3:52.15 |     33361    |    50775
4  | 11:17.01 |  3:09.63 |     50776    |    65013
5  | 14:26.64 |  3:10.49 |     65014    |    79312
6  | 17:37.38 |  3:33.11 |     79313    |    95298
7  | 21:10.49 |  2:57.51 |     95299    |   108624
8  | 24:08.25 |  1:42.18 |    108625    |   116292
9  | 25:50.43 |  3:18.49 |    116293    |   131191
10  | 29:09.17 |  5:53.51 |    131192    |   157717
11  | 35:02.68 |  3:38.53 |    157718    |   174120
12  | 38:41.46 |  4:24.70 |    174121    |   193990
13  | 43:06.41 |  3:32.31 |    193991    |   209921
14  | 46:38.72 |  4:09.69 |    209922    |   228665
15  | 50:48.66 |  4:41.06 |    228666    |   249746
16  | 55:29.72 |  2:46.39 |    249747    |   262235
17  | 58:16.36 |  2:28.45 |    262236    |   273380
18  | 60:45.06 |  3:30.17 |    273381    |   289147
19  | 64:15.23 |  3:18.35 |    289148    |   304032
20  | 67:33.58 |  3:29.41 |    304033    |   319748
21  | 71:03.24 |  3:20.10 |    319749    |   334758
22  | 74:23.34 |  4:16.07 |    334759    |   353965
Range status and errors
Selected range
Filename C:\Downloads\MusBox\Slade - Greatest Hits 1972-1994.wav
Peak level 79.5 %
Extraction speed 0.4 X
Range quality 100.0 %
Copy CRC C357D0ED
Copy OK
No errors occurred
End of status report

CD 2

Exact Audio Copy V1.0 beta 1 from 15. November 2010
EAC extraction logfile from 21. August 2012, 17:39
Slade / Greatest Hits 1972-1994 (CD2)
Used drive  : ASUS    DRW-2014L1   Adapter: 1  ID: 1
Read mode               : Secure
Utilize accurate stream : Yes
Defeat audio cache      : Yes
Make use of C2 pointers : No
Combined read/write offset correction       : 0
Overread into Lead-In and Lead-Out          : No
Fill up missing offset samples with silence : Yes
Delete leading and trailing silent blocks   : No
Null samples used in CRC calculations       : Yes
Used interface                              : Native Win32 interface for Win NT & 2000
Used output format : Internal WAV Routines
Sample format      : 44.100 Hz; 16 Bit; Stereo
TOC of the extracted CD
Track |   Start  |  Length  | Start sector | End sector
---------------------------------------------------------
1  |  0:00.00 |  3:47.03 |         0    |    17027
2  |  3:47.03 |  4:11.17 |     17028    |    35869
3  |  7:58.20 |  3:24.53 |     35870    |    51222
4  | 11:22.73 |  3:44.45 |     51223    |    68067
5  | 15:07.43 |  3:12.00 |     68068    |    82467
6  | 18:19.43 |  3:06.19 |     82468    |    96436
7  | 21:25.62 |  5:31.28 |     96437    |   121289
8  | 26:57.15 |  3:13.24 |    121290    |   135788
9  | 30:10.39 |  3:04.49 |    135789    |   149637
10  | 33:15.13 |  3:23.26 |    149638    |   164888
11  | 36:38.39 |  3:31.15 |    164889    |   180728
12  | 40:09.54 |  2:42.07 |    180729    |   192885
13  | 42:51.61 |  3:05.24 |    192886    |   206784
14  | 45:57.10 |  2:32.09 |    206785    |   218193
15  | 48:29.19 |  3:24.63 |    218194    |   233556
16  | 51:54.07 |  3:30.64 |    233557    |   249370
17  | 55:24.71 |  3:12.22 |    249371    |   263792
18  | 58:37.18 |  3:18.26 |    263793    |   278668
19  | 61:55.44 |  4:09.17 |    278669    |   297360
20  | 66:04.61 |  4:59.28 |    297361    |   319813
21  | 71:04.14 |  3:41.52 |    319814    |   336440
22  | 74:45.66 |  3:19.41 |    336441    |   351406
Range status and errors
Selected range
Filename C:\Downloads\MusBox\Slade - Greatest Hits 1972-1994 (CD2).wav
Peak level 79.9 %
Extraction speed 0.1 X
Range quality 99.7 %
Copy CRC 4359932F
Copy OK
No errors occurred
End of status report

CD 3

Exact Audio Copy V1.0 beta 1 from 15. November 2010
EAC extraction logfile from 21. August 2012, 17:57
Slade / Greatest Hits 1972-1994 (CD3)
Used drive  : ATAPI   iHAP122   W   Adapter: 1  ID: 0
Read mode               : Secure
Utilize accurate stream : Yes
Defeat audio cache      : Yes
Make use of C2 pointers : No
Read offset correction                      : 6
Overread into Lead-In and Lead-Out          : No
Fill up missing offset samples with silence : Yes
Delete leading and trailing silent blocks   : No
Null samples used in CRC calculations       : Yes
Used interface                              : Native Win32 interface for Win NT & 2000
Used output format : Internal WAV Routines
Sample format      : 44.100 Hz; 16 Bit; Stereo
TOC of the extracted CD
Track |   Start  |  Length  | Start sector | End sector
---------------------------------------------------------
1  |  0:00.00 |  3:16.73 |         0    |    14772
2  |  3:16.73 |  2:28.18 |     14773    |    25890
3  |  5:45.16 |  3:06.52 |     25891    |    39892
4  |  8:51.68 |  5:18.56 |     39893    |    63798
5  | 14:10.49 |  2:59.52 |     63799    |    77275
6  | 17:10.26 |  3:17.04 |     77276    |    92054
7  | 20:27.30 |  3:58.13 |     92055    |   109917
8  | 24:25.43 |  3:06.13 |    109918    |   123880
9  | 27:31.56 |  3:27.56 |    123881    |   139461
10  | 30:59.37 |  4:29.56 |    139462    |   159692
11  | 35:29.18 |  4:16.28 |    159693    |   178920
12  | 39:45.46 |  2:48.66 |    178921    |   191586
13  | 42:34.37 |  3:31.16 |    191587    |   207427
14  | 46:05.53 |  2:53.04 |    207428    |   220406
15  | 48:58.57 |  3:01.12 |    220407    |   233993
16  | 51:59.69 |  3:45.65 |    233994    |   250933
17  | 55:45.59 |  2:41.59 |    250934    |   263067
18  | 58:27.43 |  3:44.69 |    263068    |   279936
19  | 62:12.37 |  3:47.44 |    279937    |   297005
20  | 66:00.06 |  2:44.19 |    297006    |   309324
21  | 68:44.25 |  3:49.53 |    309325    |   326552
22  | 72:34.03 |  4:32.40 |    326553    |   346992
23  | 77:06.43 |  2:40.54 |    346993    |   359046
Range status and errors
Selected range
Filename C:\Downloads\MusBox\Slade - Greatest Hits 1972-1994 (CD3).wav
Peak level 80.1 %
Extraction speed 0.2 X
Range quality 99.9 %
Copy CRC A97D70B8
Copy OK
No errors occurred
End of status report

Индексная карта (non-compilant .cue)

CD 1

PERFORMER "Slade"
TITLE "Greatest Hits 1972-1994 (CD1)"
FILE "Slade - Greatest Hits 1972-1994 (CD1).flac" WAVE
TRACK 01 AUDIO
TITLE "Won't You Rock With Me"
INDEX 01 00:00:00
TRACK 02 AUDIO
TITLE "Far Far Away"
INDEX 01 03:47:13
TRACK 03 AUDIO
TITLE "Ooh La La in L.A."
INDEX 01 07:24:61
TRACK 04 AUDIO
TITLE "High And Dry"
INDEX 01 11:17:01
TRACK 05 AUDIO
TITLE "Everyday"
INDEX 01 14:26:64
TRACK 06 AUDIO
TITLE "Lock Up Your Daughters"
INDEX 01 17:37:38
TRACK 07 AUDIO
TITLE "Look Wot You Dun"
INDEX 01 21:10:49
TRACK 08 AUDIO
TITLE "M'hat, M'coat"
INDEX 01 24:08:25
TRACK 09 AUDIO
TITLE "This Girl"
INDEX 01 25:50:43
TRACK 10 AUDIO
TITLE "How Does It Feel"
INDEX 01 29:09:17
TRACK 11 AUDIO
TITLE "We Won't Give In"
INDEX 01 35:02:68
TRACK 12 AUDIO
TITLE "Cum On Feel The Noize"
INDEX 01 38:41:46
TRACK 13 AUDIO
TITLE "Gudbuy T'Jane"
INDEX 01 43:06:41
TRACK 14 AUDIO
TITLE "My Oh My"
INDEX 01 46:38:72
TRACK 15 AUDIO
TITLE "Nobody's Fool"
INDEX 01 50:48:66
TRACK 16 AUDIO
TITLE "Cum On Let's Party"
INDEX 01 55:29:72
TRACK 17 AUDIO
TITLE "Don't Talk To Me About Love"
INDEX 01 58:16:36
TRACK 18 AUDIO
TITLE "Don't Waste Your Time"
INDEX 01 60:45:06
TRACK 19 AUDIO
TITLE "Fools Go Crazy"
INDEX 01 64:15:23
TRACK 20 AUDIO
TITLE "Gudbuy Gudbuy"
INDEX 01 67:33:58
TRACK 21 AUDIO
TITLE "Gotta Go Home"
INDEX 01 71:03:24
TRACK 22 AUDIO
TITLE "7 Year Bitch"
INDEX 01 74:23:34

CD 2

PERFORMER "Slade"
TITLE "Greatest Hits 1972-1994 (CD2)"
FILE "Slade - Greatest Hits 1972-1994 (CD2).flac" WAVE
TRACK 01 AUDIO
TITLE "Radio Wall Of Sound"
INDEX 01 00:00:00
TRACK 02 AUDIO
TITLE "Bangin' Man"
INDEX 01 03:47:03
TRACK 03 AUDIO
TITLE "Coz I Love You"
INDEX 01 07:58:20
TRACK 04 AUDIO
TITLE "Harmony"
INDEX 01 11:22:73
TRACK 05 AUDIO
TITLE "How D'You Ride"
INDEX 01 15:07:43
TRACK 06 AUDIO
TITLE "I Don't Mind"
INDEX 01 18:19:43
TRACK 07 AUDIO
TITLE "You Boyz Make Big Noize (Remix)"
INDEX 01 21:25:62
TRACK 08 AUDIO
TITLE "I'm A Talker"
INDEX 01 26:57:15
TRACK 09 AUDIO
TITLE "It's Your Body Not Your Mind"
INDEX 01 30:10:39
TRACK 10 AUDIO
TITLE "Johnny Played The Guitar"
INDEX 01 33:15:13
TRACK 11 AUDIO
TITLE "Let's Call It Quits"
INDEX 01 36:38:39
TRACK 12 AUDIO
TITLE "Me And The Boys"
INDEX 01 40:09:54
TRACK 13 AUDIO
TITLE "Night Starvation"
INDEX 01 42:51:61
TRACK 14 AUDIO
TITLE "Nuts Bolts And Screws"
INDEX 01 45:57:10
TRACK 15 AUDIO
TITLE "Pack Up Your Troubles"
INDEX 01 48:29:19
TRACK 16 AUDIO
TITLE "Red Hot"
INDEX 01 51:54:07
TRACK 17 AUDIO
TITLE "Sing Shout (Knock Your Self Out)"
INDEX 01 55:24:71
TRACK 18 AUDIO
TITLE "That's What Friends Are For"
INDEX 01 58:37:18
TRACK 19 AUDIO
TITLE "Time To Rock"
INDEX 01 61:55:44
TRACK 20 AUDIO
TITLE "Walking On Water, Running On Alcohol"
INDEX 01 66:04:61
TRACK 21 AUDIO
TITLE "Ginny, Ginny"
INDEX 01 71:04:14
TRACK 22 AUDIO
TITLE "Hot Luv"
INDEX 01 74:45:66

CD 3

PERFORMER "Slade"
TITLE "Greatest Hits 1972-1994 (CD3)"
FILE "Slade - Greatest Hits 1972-1994 (CD3).flac" WAVE
TRACK 01 AUDIO
TITLE "Black & White World"
INDEX 01 00:00:00
TRACK 02 AUDIO
TITLE "Chakeeta"
INDEX 01 03:16:73
TRACK 03 AUDIO
TITLE "Did Your Mama Ever Tell Ya"
INDEX 01 05:45:16
TRACK 04 AUDIO
TITLE "Hey Ho Wish You Well"
INDEX 01 08:51:68
TRACK 05 AUDIO
TITLE "How Can It Be"
INDEX 01 14:10:49
TRACK 06 AUDIO
TITLE "I Won't Let It 'Appen Agen"
INDEX 01 17:10:26
TRACK 07 AUDIO
TITLE "L.A. Jinx"
INDEX 01 20:27:30
TRACK 08 AUDIO
TITLE "Look At Last Night"
INDEX 01 24:25:43
TRACK 09 AUDIO
TITLE "Merry XMas Everybody"
INDEX 01 27:31:56
TRACK 10 AUDIO
TITLE "Skweeze Me, Pleeze Me"
INDEX 01 30:59:37
TRACK 11 AUDIO
TITLE "All Join Hands"
INDEX 01 35:29:18
TRACK 12 AUDIO
TITLE "I'm Mad"
INDEX 01 39:45:46
TRACK 13 AUDIO
TITLE "Merry Xmas Now!"
INDEX 01 42:34:37
TRACK 14 AUDIO
TITLE "Ruby Read"
INDEX 01 46:05:53
TRACK 15 AUDIO
TITLE "You Boyz Make Big Noize (Instrumental)"
INDEX 01 48:58:57
TRACK 16 AUDIO
TITLE "Run Runaway"
INDEX 01 51:59:69
TRACK 17 AUDIO
TITLE "My Friend Stan"
INDEX 01 55:45:59
TRACK 18 AUDIO
TITLE "Mama Weer All Crazee Now"
INDEX 01 58:27:43
TRACK 19 AUDIO
TITLE "Miles Out To Sea"
INDEX 01 62:12:37
TRACK 20 AUDIO
TITLE "In The Doghouse"
INDEX 01 66:00:06
TRACK 21 AUDIO
TITLE "Get Down And Get With It"
INDEX 01 68:44:25
TRACK 22 AUDIO
TITLE "I'll Be There"
INDEX 01 72:34:03
TRACK 23 AUDIO
TITLE "Let's Dance ('88 Remix)"
INDEX 01 77:06:43

Лог Audiochecker

CD 1

AUDIOCHECKER v2.0 beta (build 457) - by Dester - [email protected]
~~~~~~~~~~~~~~~~~~~~~~~~~~~~~~~~~~
Started at: пятница, 13. 02. 2015. - 16:20.11
1 file found
1 -===- D:\Torrent files\Slade - Greatest Hits 1972-1994 (3CD) - 2011\CD1\Slade - Greatest Hits 1972-1994 (CD1).flac
Extracted successfully
Conclusion: this track is CDDA with probability 100%
Tempfile successfully deleted.
Finished at: пятница, 13. 02. 2015. - 16:23.47 (operation time: 0:03.35)

CD 2

AUDIOCHECKER v2.0 beta (build 457) - by Dester - [email protected]
~~~~~~~~~~~~~~~~~~~~~~~~~~~~~~~~~~
Started at: пятница, 13. 02. 2015. - 16:24.05
1 file found
1 -===- D:\Torrent files\Slade - Greatest Hits 1972-1994 (3CD) - 2011\CD2\Slade - Greatest Hits 1972-1994 (CD2).flac
Extracted successfully
Conclusion: this track is CDDA with probability 100%
Tempfile successfully deleted.
Finished at: пятница, 13. 02. 2015. - 16:27.32 (operation time: 0:03.27)

CD 3

AUDIOCHECKER v2.0 beta (build 457) - by Dester - [email protected]
~~~~~~~~~~~~~~~~~~~~~~~~~~~~~~~~~~
Started at: пятница, 13. 02. 2015. - 16:28.01
1 file found
1 -===- D:\Torrent files\Slade - Greatest Hits 1972-1994 (3CD) - 2011\CD3\Slade - Greatest Hits 1972-1994 (CD3).flac
Extracted successfully
Conclusion: this track is CDDA with probability 99%
Tempfile successfully deleted.
Finished at: пятница, 13. 02. 2015. - 16:31.37 (operation time: 0:03.35)

Скриншот спектра частот

--Не забываем говорить
Яндекс.Метрика
Рейтинг@Mail.ru