Левиафан (2014) BDRip [H.264]

 

Создавать темы 12-Фев-2015 21:58

-Левиафан (2014) BDRip [H.264]
« Всякая власть от Бога »
- Производство: Россия | Нон-стоп Продакшн
Жанр: Драма
Режиссер: Андрей Звягинцев
Актеры: Алексей Серебряков, Елена Лядова, Владимир Вдовиченков, Роман Мадянов, Анна Уколова, Алексей Розин, Сергей Походаев, Платон Каменев, Сергей Бачурский, Валерий Гришко, Алла Еминцева, Маргарита Шубина, Дмитрий Быковский-Ромашов, Сергей Борисов, Игорь Савочкин-Описание фильма: В центре истории - живущий на севере Николай, который вместе с отцом построил дом и мастерскую. Но его нормальная жизнь рушится под влиянием судьбы.-Перевод: Оригинал
Вид субтитров: Отсутствуют-Возраст: 18+ Зрителям, достигшим 18 лет
Рейтинг MPAA: R Лицам до 17 лет обязательно присутствие взрослого
Дата мировой премьеры: 23 мая 2014
Дата российской премьеры: 5 февраля 2015, «Двадцатый Век Фокс СНГ», «A Company»
Продолжительность: 02:21:27
Качество видео: BDRip [H.264]
Видео: MPEG-4 AVC/H.264, 3500 Kbps, 1024 x 426
Аудио: Русский AC3 5.1, 448 Kbps, 48.0 KHz

MediaInfo

Общее
Полное имя : Левиафан.mkv
Формат : Matroska
Версия формата : Version 1
Размер файла : 3,90 Гбайт
Продолжительность : 2 ч. 21 м.
Общий поток : 3947 Кбит/сек
Дата кодирования : UTC 2015-02-12 12:30:32
Программа кодирования : mkvmerge v2.4.1 ('Use Me') built on Dec 5 2008 18:30:05
Библиотека кодирования : libebml v0.7.7 + libmatroska v0.8.1
Видео
Идентификатор : 1
Формат : AVC
Формат/Информация : Advanced Video Codec
Профиль формата : [url=mailto:[email protected]][email protected][/url]
Параметр CABAC формата : Да
Параметр ReFrames формата : 10 кадров
Идентификатор кодека : V_MPEG4/ISO/AVC
Продолжительность : 2 ч. 21 м.
Битрейт : 3500 Кбит/сек
Ширина : 1024 пикселя
Высота : 426 пикселей
Соотношение сторон : 2,40:1
Режим частоты кадров : Постоянный
Частота кадров : 24,000 кадра/сек
Цветовое пространство : YUV
Субдискретизация насыщенности : 4:2:0
Битовая глубина : 8 бит
Тип развёртки : Прогрессивная
Бит/(Пиксели*Кадры) : 0.334
Размер потока : 3,38 Гбайт (87%)
Заголовок : Левиафан (2014)
Библиотека кодирования : x264 core 142 r2431 ac76440
Настройки программы : cabac=1 / ref=10 / deblock=1:-3:-3 / analyse=0x3:0x133 / me=umh / subme=10 / psy=1 / psy_rd=1.00:0.10 / mixed_ref=1 / me_range=48 / chroma_me=1 / trellis=2 / 8x8dct=1 / cqm=0 / deadzone=21,11 / fast_pskip=0 / chroma_qp_offset=-3 / threads=6 / lookahead_threads=1 / sliced_threads=0 / nr=0 / decimate=1 / interlaced=0 / bluray_compat=0 / constrained_intra=0 / bframes=5 / b_pyramid=2 / b_adapt=2 / b_bias=0 / direct=3 / weightb=1 / open_gop=0 / weightp=2 / keyint=240 / keyint_min=22 / scenecut=40 / intra_refresh=0 / rc_lookahead=40 / rc=2pass / mbtree=1 / bitrate=3500 / ratetol=1.0 / qcomp=0.60 / qpmin=10 / qpmax=51 / qpstep=4 / cplxblur=20.0 / qblur=0.5 / ip_ratio=1.40 / aq=1:1.00
Язык : Russian
Аудио
Идентификатор : 2
Формат : AC-3
Формат/Информация : Audio Coding 3
Расширение режима : CM (complete main)
Параметр Endianness формата : Big
Идентификатор кодека : A_AC3
Продолжительность : 2 ч. 21 м.
Вид битрейта : Постоянный
Битрейт : 448 Кбит/сек
Каналы : 6 каналов
Расположение каналов : Front: L C R, Side: L R, LFE
Частота : 48,0 КГц
Битовая глубина : 16 бит
Метод сжатия : С потерями
Размер потока : 453 Мбайт (11%)
Заголовок : AC3 (Оригинал)
Язык : Russian
Скриншоты:

Время раздачи: С 9:00 до 21:00
Яндекс.Метрика
Рейтинг@Mail.ru