Свалка / Trash (2014) BDRip [1080p]

 

Создавать темы 12-Фев-2015 21:51

-Свалка / Trash (2014) BDRip [1080p]- Производство: Великобритания, Бразилия, O2 Filmes, PeaPie Films, Working Title Films
Жанр: Триллер, Драма, Криминал
Режиссер: Стивен Долдри
Актеры: Вагнер Моура, Мартин Шин, Руни Мара, Селтон Мелу, Андре Рамиру, Кристиана Аманпур, Хесвита Барбоса, Нелсон Шавьер, Андре Рамиру
Описание фильма:
История о трех мальчиках, живущих в стране третьего мира. Они еле сводят концы с концами, копаясь в мусоре. Однажды они находят кожаную сумку, содержимое которой окунает их в ужасное приключение…--Дата мировой премьеры: 7 октября 2014
Продолжительность: 01:53:43
Качество видео: BDRip [HDAccess]
Перевод: Дублированный (Лицензия)
Субтитры: Вшитые отключаемые
Язык субтитров: Английский
Видео: MPEG-4 AVC/H.264, 1920x816 (2.35:1), ~14500 kbps (0.386 bit/pixel), 23.976 fps
Аудио »1: 48 kHz, DTS Dolby Digital, 3/2 (L,C,R,l,r) + LFE ch, ~768 kbps (Русский) / Дубляж, Лицензия
Аудио »2: 48 kHz, AC3 Dolby Digital, 3/2 (L,C,R,l,r) + LFE ch, ~448 kbps (Русский) / Дубляж, Лицензия
Аудио »3: 48 kHz, DTS Dolby Digital, 3/2 (L,C,R,l,r) + LFE ch, ~1536 kbps (Английский) / Оригинал
Сэмпл: Скачать

Награды

Британская академия, 2015 год
Номинации (1):
  • Лучший фильм на иностранном языке

MI

Общее
Уникальный идентификатор : 192590121263207013620257403365826868331 (0x90E38216575175239A11CCA0D369B46B)
Полное имя : D:\Раздачи\Svalka.2014.BDRip.[1080p].NNM-CLUB.mkv
Формат : Matroska
Версия формата : Version 4 / Version 2
Размер файла : 14,0 Гбайт
Продолжительность : 1 ч. 53 м.
Общий поток : 17,6 Мбит/сек
Дата кодирования : UTC 2015-02-07 19:32:04
Программа кодирования : mkvmerge v7.3.0 ('Nouages') 64bit built on Oct 22 2014 18:53:34
Библиотека кодирования : libebml v1.3.0 + libmatroska v1.4.1
Видео
Идентификатор : 1
Формат : AVC
Формат/Информация : Advanced Video Codec
Профиль формата : [url=mailto:[email protected]][email protected][/url]
Параметр CABAC формата : Да
Параметр ReFrames формата : 5 кадров
Идентификатор кодека : V_MPEG4/ISO/AVC
Продолжительность : 1 ч. 53 м.
Битрейт : 14,5 Мбит/сек
Ширина : 1920 пикселей
Высота : 816 пикселей
Соотношение сторон : 2,35:1
Режим частоты кадров : Постоянный
Частота кадров : 23,976 кадра/сек
Цветовое пространство : YUV
Субдискретизация насыщенности : 4:2:0
Битовая глубина : 8 бит
Тип развёртки : Прогрессивная
Бит/(Пиксели*Кадры) : 0.386
Размер потока : 11,5 Гбайт (82%)
Библиотека кодирования : x264 core 142 r2431+42 c69a006 tMod [[email protected] X86_64]
Настройки программы : cabac=1 / ref=5 / deblock=1:-3:-3 / analyse=0x3:0x133 / me=umh / subme=9 / psy=1 / fade_compensate=0.00 / psy_rd=1.03:0.00 / mixed_ref=1 / me_range=24 / chroma_me=1 / trellis=2 / 8x8dct=1 / cqm=0 / deadzone=21,11 / fast_pskip=0 / chroma_qp_offset=-2 / threads=18 / lookahead_threads=3 / sliced_threads=0 / nr=0 / decimate=0 / interlaced=0 / bluray_compat=0 / constrained_intra=0 / fgo=0 / bframes=8 / b_pyramid=2 / b_adapt=2 / b_bias=0 / direct=3 / weightb=1 / open_gop=0 / weightp=2 / keyint=250 / keyint_min=23 / scenecut=40 / intra_refresh=0 / rc=crf / mbtree=0 / crf=17.3000 / qcomp=0.75 / qpmin=0:0:0 / qpmax=69:69:69 / qpstep=4 / ip_ratio=1.30 / pb_ratio=1.20 / aq=3:0.75 / aq-sensitivity=10.00 / aq-factor=1.00:1.00:1.00 / aq2=0 / aq3=0
Язык : English
Default : Да
Forced : Нет
Аудио #1
Идентификатор : 2
Формат : DTS
Формат/Информация : Digital Theater Systems
Режим : 16
Параметр Endianness формата : Big
Идентификатор кодека : A_DTS
Продолжительность : 1 ч. 53 м.
Вид битрейта : Постоянный
Битрейт : 768 Кбит/сек
Каналы : 6 каналов
Расположение каналов : Front: L C R, Side: L R, LFE
Частота : 48,0 КГц
Битовая глубина : 24 бит
Метод сжатия : С потерями
Размер потока : 625 Мбайт (4%)
Язык : Russian
Default : Да
Forced : Нет
Аудио #2
Идентификатор : 3
Формат : AC-3
Формат/Информация : Audio Coding 3
Расширение режима : CM (complete main)
Параметр Endianness формата : Big
Идентификатор кодека : A_AC3
Продолжительность : 1 ч. 53 м.
Вид битрейта : Постоянный
Битрейт : 448 Кбит/сек
Каналы : 6 каналов
Расположение каналов : Front: L C R, Side: L R, LFE
Частота : 48,0 КГц
Битовая глубина : 16 бит
Метод сжатия : С потерями
Размер потока : 364 Мбайт (3%)
Язык : Russian
Default : Нет
Forced : Нет
Аудио #3
Идентификатор : 4
Формат : DTS
Формат/Информация : Digital Theater Systems
Режим : 16
Параметр Endianness формата : Big
Идентификатор кодека : A_DTS
Продолжительность : 1 ч. 53 м.
Вид битрейта : Постоянный
Битрейт : 1509 Кбит/сек
Каналы : 6 каналов
Расположение каналов : Front: L C R, Side: L R, LFE
Частота : 48,0 КГц
Битовая глубина : 24 бит
Метод сжатия : С потерями
Размер потока : 1,20 Гбайт (9%)
Язык : English
Default : Нет
Forced : Нет
Текст
Идентификатор : 5
Формат : UTF-8
Идентификатор кодека : S_TEXT/UTF8
Идентификатор кодека/Информация : UTF-8 Plain Text
Язык : English
Default : Нет
Forced : Нет
Меню
00:00:00.000 : en:00:00:00.000
00:05:41.633 : en:00:05:41.633
00:11:27.312 : en:00:11:27.312
00:17:52.071 : en:00:17:52.071
00:23:32.953 : en:00:23:32.953
00:31:00.067 : en:00:31:00.067
00:38:09.787 : en:00:38:09.787
00:43:48.251 : en:00:43:48.251
00:53:26.829 : en:00:53:26.829
01:01:26.975 : en:01:01:26.975
01:08:38.990 : en:01:08:38.990
01:15:59.597 : en:01:15:59.597
01:23:51.193 : en:01:23:51.193
01:26:58.380 : en:01:26:58.380
01:29:23.358 : en:01:29:23.358
01:33:26.726 : en:01:33:26.726
01:37:48.905 : en:01:37:48.905
01:40:39.408 : en:01:40:39.408
01:44:04.113 : en:01:44:04.113
01:49:13.964 : en:01:49:13.964
Скриншоты:Время раздачи: 24/7,
до 5 скачавших.
Яндекс.Метрика
Рейтинг@Mail.ru