[ Сегодня на трекере фрилич! Идет свободное скачивание без начисления Download ]

5sta Family - Буду с Тобой (2013) 1080p | 60 fps

 

Создавать темы 11-Фев-2015 23:54

--5sta Family - Буду с Тобой (2013) 1080p | 60 fps --Информация о Клипе
Исполнитель: 5sta Family
Название: Буду с Тобой
Год выхода: 2013
Продолжительность:00:03:36-Файл
Кодек: MPEG4/ISO/AVC/ H.264
Формат: MKV
Качество: 1080p
Видео: 1920 x 1080 (1.778) at 60.000 fps 15.0 Мбит/сек
Аудио: MP3 | 320 Кбит/сек | 48.0 KHz | 2 channels

MI

Видео
Идентификатор : 1
Формат : AVC
Формат/Информация : Advanced Video Codec
Профиль формата : [email protected]
Параметр CABAC формата : Да
Параметр ReFrames формата : 4 кадра
Идентификатор кодека : V_MPEG4/ISO/AVC
Продолжительность : 3 м. 36 с.
Битрейт : 15,0 Мбит/сек
Ширина : 1920 пикселей
Высота : 1080 пикселей
Соотношение сторон : 16:9
Режим частоты кадров : Постоянный
Частота кадров : 60,000 кадров/сек
Цветовое пространство : YUV
Субдискретизация насыщенности : 4:2:0
Битовая глубина : 8 бит
Тип развёртки : Прогрессивная
Бит/(Пиксели*Кадры) : 0.121
Размер потока : 378 Мбайт (96%)
Заголовок : www.60-fps.org
Библиотека кодирования : x264 core 129 r2245 bc13772
Настройки программы : cabac=1 / ref=4 / deblock=1:0:0 / analyse=0x3:0x133 / me=esa / subme=9 / psy=1 / psy_rd=1.00:0.25 / mixed_ref=1 / me_range=32 / chroma_me=1 / trellis=2 / 8x8dct=1 / cqm=0 / deadzone=6,6 / fast_pskip=1 / chroma_qp_offset=-4 / threads=12 / lookahead_threads=2 / sliced_threads=0 / nr=0 / decimate=0 / interlaced=0 / bluray_compat=0 / constrained_intra=0 / bframes=3 / b_pyramid=2 / b_adapt=2 / b_bias=0 / direct=3 / weightb=1 / open_gop=0 / weightp=2 / keyint=600 / keyint_min=60 / scenecut=40 / intra_refresh=0 / rc_lookahead=60 / rc=2pass / mbtree=1 / bitrate=14999 / ratetol=1.0 / qcomp=0.80 / qpmin=0 / qpmax=69 / qpstep=4 / cplxblur=19.0 / qblur=0.0 / ip_ratio=1.10 / aq=1:0.50
Язык : English
Default : Нет
Forced : Нет
Аудио
Идентификатор : 2
Формат : MPEG Audio
Версия формата : Version 1
Профиль формата : Layer 3
Режим : Joint stereo
Расширение режима : MS Stereo
Идентификатор кодека : A_MPEG/L3
Идентификатор кодека/Подсказка : MP3
Продолжительность : 3 м. 36 с.
Вид битрейта : Постоянный
Битрейт : 320 Кбит/сек
Каналы : 2 канала
Частота : 48,0 КГц
Метод сжатия : С потерями
Размер потока : 8,24 Мбайт (2%)
Библиотека кодирования : LAME3.99.5
Язык : English
Default : Нет
Forced : Нет

Скриншоты:

Яндекс.Метрика
Рейтинг@Mail.ru