[ Сегодня на трекере фрилич! Идет свободное скачивание без начисления Download ]

Прощай, детка, прощай / Gone Baby Gone (Бен Аффлек / Ben Affleck) [2007 г., драма, криминал, детектив, BDRip] AVO (Владимир Королев)

 

Создавать темы 10-Фев-2015 05:08

Прощай, детка, прощай / Gone Baby Gone
Год выпуска: 2007
Производство: США, Miramax
Жанр: драма, криминал, детектив
Продолжительность: 01:53:55
Перевод: Авторский (одноголосый, закадровый) Владимир Королев
Субтитры: отсутствуют
Режиссер: Бен Аффлек / Ben Affleck
В ролях: Кэйси Аффлек, Мишель Монахэн, Морган Фриман, Эд Харрис, Джон Эштон, Эми Райан
Описание: В пригороде Бостона без вести пропадает четырехлетняя Аманда МакКриди. Когда официальные власти прекращают попытки найти исчезнувшую девочку, ее тетя упрашивает двух частных детективов, Патрика Кензи и Анджелу Дженнаро, начать расследование.
Поначалу они не торопятся взяться за безнадежное дело, однако новые обстоятельства заставляют их поставить на кон не только собственные профессиональные репутации, но и жизни.
Качество видео: BDRip
Контейнер: AVI
Видео кодек: XviD
Аудио кодек: AC3
Видео: 720 x 384, XviD,1435 kbps, 23.976 fps,
Аудио : Dolby AC3 48000Hz 6ch 640kbps - В.Королев

Доп. информация

Бюджет: $19 000 000
Сборы в США: $20 300 218
Сборы в мире: $34 619 699
Сборы в России: $46 500
DVD в США: $8 350 866

Награды

Оскар, 2008 год
Номинации (1):
• Лучшая женская роль второго плана (Эми Райан)
Золотой глобус, 2008 год
Номинации (1):
• Лучшая женская роль второго плана (Эми Райан)

Рецензия

Эта работа в первую очередь конечно примечательна тем, что открыла нам неплохого, но и не выдающегося актера Бена Аффлека («Перл-Харбор», «Армагеддон») в совсем ином ракурсе, теперь мы его знаем как потрясающего постановщика со своим фирменным стилем, отличным вкусом и четко выраженной социальной позицией, а после его недавней успешной криминальной драмы“ Город воров» в его таланте режиссера сомневаться не приходится. Для своей дебютной режиссерской работы Бен Аффлек неспроста выбрал для экранизации одноименный роман одного из самых уважаемых сегодня американских писателей Дэнниса Лихэйна, чьи произведения также экранизировали Клинт Иствуд («Таинственная река») и Мартин Скорсезе («Остров проклятых»), а также планируется экранизация его новейшего романа «Live By Night» с Леонардо Ди Каприо в главной роли.
Денис Лихэйн умеет неповторимо и увлекательно соединять в своих историях несколько слоев, тут вам мрачный триллер, и закрученный детектив, и глубокая драма, но самыми интересными и важными, безусловно, являются их социальные аспекты и вопросы. Что же важнее закон или собственное понимание правильного и неправильного? Как поступать в сложных ситуациях по своим принципам и моральным устоям или повинуясь разуму и чувствам? Правилен ли будет твой выбор, если за него тебя потом будет точно мучить совесть? И именно такие вопросы задает режиссер Бен Аффлек зрителю в своем фильме и эта противоречивость, благодаря которой так приятно обсуждать «Прощай, детка, прощай!» с друзьями после просмотра, его главная фишка.
Но не только на ней всё держится, актерский состав тут тоже не слаб, на мой взгляд, замечателен выбор (хоть и по блату) на главную роль Кейси Аффлека («Друзья Оушена», «Как трусливый Роберт Форд убил Джесси Джеймса»), проявившего себя очень достойно в сложной драматической роли детектива Патрика Кензи в одной команде с такими зубрами кинематографа как Эд Харрис («Радио», Шоу Трумена») и Морган Фримен («Побег из Шоушенка», «Целуя девочек»). Замечательные Мишель Монахан («Исходный код», «Поцелуй навылет») и Эми Райан («Побеждай», «Игры дьявола»), номинированная, кстати, на «Оскар» и на «Золотой глобус» в 2008-ом году за роль Хелен МакКриди, сыграли также предельно эмоционально и с душой.

Media Info

General
Полное имя : D:\Все мое\фильмы\Gone baby gone .avi
Формат : AVI
Формат/Информация : Audio Video Interleave
Размер файла : 1.66 GiB
Продолжительность : 1h 53mn
Общий поток : 2 085 Kbps
Библиотека кодирования : VirtualDub build 35390/release
Video
Идентификатор : 0
Формат : MPEG-4 Visual
Профиль формата : Advanced [email protected]
Параметр BVOP формата : 1
Параметр QPel формата : No
Параметр GMC формата : No warppoints
Параметр матрицы формата : Default (MPEG)
Идентификатор кодека : XVID
Идентификатор кодека/Подсказка : XviD
Продолжительность : 1h 53mn
Битрейт : 1 436 Kbps
Ширина : 720 pixels
Высота : 384 pixels
Соотношение сторон : 1.85:1
Частота кадров : 23.976 fps
Цветовое пространство : YUV
Субдискретизация насыщенности : 4:2:0
Битовая глубина : 8 bits
Тип развёртки : Progressive
Метод сжатия : Lossy
Бит/(Пиксели*Кадры) : 0.217
Размер потока : 1.14 GiB (69%)
Библиотека кодирования : XviD 1.1.2 (UTC 2006-11-01)
Audio
Идентификатор : 1
Формат : AC-3
Формат/Информация : Audio Coding 3
Расширение режима : CM (complete main)
Параметр Endianness формата : Big
Идентификатор кодека : 2000
Продолжительность : 1h 53mn
Вид битрейта : Constant
Битрейт : 640 Kbps
Каналы : 6 channels
Расположение каналов : Front: L C R, Side: L R, LFE
Частота : 48.0 KHz
Битовая глубина : 16 bits
Метод сжатия : Lossy
Размер потока : 521 MiB (31%)
Выравнивание : Aligned on interleaves
Продолжительность промежутка : 42 ms (1.00 video frame)
Время предзагрузки промежутка : 512 ms

Скриншоты

Яндекс.Метрика
Рейтинг@Mail.ru