(Hard Rock) Sweet & Lynch - Only To Rise - 2015 [FLAC, image+.cue, lossless]

 

Создавать темы 09-Фев-2015 21:27

-Sweet & Lynch / Only To Rise-- Год издания: 2015
Страна: USA
Жанр: Hard Rock
Продолжительность: 00:51:13-Лейбл издания: Avalon Marquee
Тип альбома: MICP-11196
Страна-выпуска диска: Japan
Формат: FLAC
Битрейт аудио: lossless
Тип рипа: image+.cue
Наличие сканов в содержимом раздачи: да

Трэклист

01. The Wish (03:39)
02. Dying Rose (03:42)
03. Love Stays (04:35)
04. Time Will Tell (03:52)
05. Rescue Me (04:14)
06. Me Without You (04:03)
07. Recover (03:43)
08. Divine (04:19)
09. September (04:18)
10. Strength In Numbers (03:19)
11. Hero-Zero (04:12)
12. Only To Rise (03:46)
13. Me Without You (alternate version) (03:39)

Лог создания рипа

Exact Audio Copy V1.0 beta 3 from 29. August 2011
EAC extraction logfile from 24. January 2015, 17:05
Sweet & Lynch / Only To Rise
Used drive  : SlimtypeDVD A  DS8A5SH   Adapter: 0  ID: 1
Read mode               : Secure
Utilize accurate stream : Yes
Defeat audio cache      : Yes
Make use of C2 pointers : No
Read offset correction                      : 6
Overread into Lead-In and Lead-Out          : No
Fill up missing offset samples with silence : Yes
Delete leading and trailing silent blocks   : No
Null samples used in CRC calculations       : Yes
Used interface                              : Native Win32 interface for Win NT & 2000
Used output format              : User Defined Encoder
Selected bitrate                : 320 kBit/s
Quality                         : High
Add ID3 tag                     : No
Command line compressor         : C:\Program Files\Exact Audio Copy\Flac\flac.exe
Additional command line options : -V -8 -T "Date=%year%" -T "Genre=%genre%" %source%
TOC of the extracted CD
Track |   Start  |  Length  | Start sector | End sector
---------------------------------------------------------
1  |  0:00.00 |  3:38.54 |         0    |    16403
2  |  3:38.54 |  3:41.32 |     16404    |    33010
3  |  7:20.11 |  4:34.41 |     33011    |    53601
4  | 11:54.52 |  3:51.02 |     53602    |    70928
5  | 15:45.54 |  4:13.27 |     70929    |    89930
6  | 19:59.06 |  4:02.25 |     89931    |   108105
7  | 24:01.31 |  3:42.49 |    108106    |   124804
8  | 27:44.05 |  4:18.34 |    124805    |   144188
9  | 32:02.39 |  4:17.05 |    144189    |   163468
10  | 36:19.44 |  3:18.21 |    163469    |   178339
11  | 39:37.65 |  4:11.48 |    178340    |   197212
12  | 43:49.38 |  3:45.03 |    197213    |   214090
13  | 47:34.41 |  3:38.46 |    214091    |   230486
Range status and errors
Selected range
Filename D:\My Music\Sweet & Lynch - 2015 Only To Rise (Japanese Edition)\Sweet & Lynch - Only To Rise.wav
Peak level 100.0 %
Extraction speed 1.6 X
Range quality 100.0 %
Test CRC 7A4BBC5A
Copy CRC 7A4BBC5A
Copy OK
No errors occurred
AccurateRip summary
Track  1  not present in database
Track  2  not present in database
Track  3  not present in database
Track  4  not present in database
Track  5  not present in database
Track  6  not present in database
Track  7  not present in database
Track  8  not present in database
Track  9  not present in database
Track 10  not present in database
Track 11  not present in database
Track 12  not present in database
Track 13  not present in database
None of the tracks are present in the AccurateRip database
End of status report

Индексная карта (non-compilant .cue)

REM GENRE "Hard Rock"
REM DATE 2015
REM DISCID A70C010D
REM COMMENT "ExactAudioCopy v1.0b3"
PERFORMER "Sweet & Lynch"
TITLE "Only To Rise"
FILE "Sweet & Lynch - Only To Rise.flac" WAVE
TRACK 01 AUDIO
TITLE "The Wish"
PERFORMER "Sweet & Lynch"
INDEX 01 00:00:00
TRACK 02 AUDIO
TITLE "Dying Rose"
PERFORMER "Sweet & Lynch"
INDEX 01 03:38:54
TRACK 03 AUDIO
TITLE "Love Stays"
PERFORMER "Sweet & Lynch"
INDEX 01 07:20:11
TRACK 04 AUDIO
TITLE "Time Will Tell"
PERFORMER "Sweet & Lynch"
INDEX 01 11:54:52
TRACK 05 AUDIO
TITLE "Rescue Me"
PERFORMER "Sweet & Lynch"
INDEX 01 15:45:54
TRACK 06 AUDIO
TITLE "Me Without You"
PERFORMER "Sweet & Lynch"
INDEX 01 19:59:06
TRACK 07 AUDIO
TITLE "Recover"
PERFORMER "Sweet & Lynch"
INDEX 01 24:01:31
TRACK 08 AUDIO
TITLE "Divine"
PERFORMER "Sweet & Lynch"
INDEX 01 27:44:05
TRACK 09 AUDIO
TITLE "September"
PERFORMER "Sweet & Lynch"
INDEX 01 32:02:39
TRACK 10 AUDIO
TITLE "Strength In Numbers"
PERFORMER "Sweet & Lynch"
INDEX 01 36:19:44
TRACK 11 AUDIO
TITLE "Hero-Zero"
PERFORMER "Sweet & Lynch"
INDEX 01 39:37:65
TRACK 12 AUDIO
TITLE "Only To Rise"
PERFORMER "Sweet & Lynch"
INDEX 01 43:49:38
TRACK 13 AUDIO
TITLE "Me Without You (alternate version)"
PERFORMER "Sweet & Lynch"
INDEX 00 47:32:41
INDEX 01 47:34:41

Скриншот спектра частот

Об исполнителе (группе)

дебютный альбом
--Не забываем говорить
Яндекс.Метрика
Рейтинг@Mail.ru