[ Сегодня на трекере фрилич! Идет свободное скачивание без начисления Download ]

(Heavy Metal) Jorn Lande amp Trond Holter - Dracula Swing of Death - 2015 [FLAC, image+.cue, lossless]

 

Создавать темы 09-Фев-2015 21:25

-Jorn Lande amp Trond Holter / Dracula Swing of Death-- Год издания: 2015
Страна: Norway
Жанр: Heavy Metal
Продолжительность: 00:45:32-Лейбл издания: Frontiers Records
Страна-выпуска диска: Italy
Номер по каталогу: FR CD 676
Формат: FLAC
Битрейт аудио: lossless
Тип рипа: image+.cue
Наличие сканов в содержимом раздачи: да
-

Трэклист

01. Hands of Your God (03:39)
02. Walking on Water (05:44)
03. Swing of Death (04:38)
04. Masquerade Ball (03:34)
05. Save Me (04:19)
06. River of Tears (04:51)
07. Queen of the Dead (06:12)
08. Into the Dark (03:34)
09. True love, Through Blood (03:57)
10. Under the Gun (05:09)

Лог создания рипа

Exact Audio Copy V1.0 beta 3 from 29. August 2011
EAC extraction logfile from 30. January 2015, 14:58
Dracula / Swing Of Death
Used drive  : HL-DT-STDVDRAM GU40N   Adapter: 0  ID: 1
Read mode               : Secure
Utilize accurate stream : Yes
Defeat audio cache      : Yes
Make use of C2 pointers : No
Read offset correction                      : 103
Overread into Lead-In and Lead-Out          : No
Fill up missing offset samples with silence : Yes
Delete leading and trailing silent blocks   : No
Null samples used in CRC calculations       : Yes
Used interface                              : Installed external ASPI interface
Used output format              : User Defined Encoder
Selected bitrate                : 128 kBit/s
Quality                         : High
Add ID3 tag                     : No
Command line compressor         : C:\Program Files (x86)\AudioConverter\AudioConverter.exe
Additional command line options :  -V -8 -T "Date=%year%" -T "Genre=%genre%" %source%
TOC of the extracted CD
Track |   Start  |  Length  | Start sector | End sector
---------------------------------------------------------
1  |  0:00.00 |  3:39.39 |         0    |    16463
2  |  3:39.39 |  5:43.09 |     16464    |    42197
3  |  9:22.48 |  4:38.56 |     42198    |    63103
4  | 14:01.29 |  3:33.39 |     63104    |    79117
5  | 17:34.68 |  4:19.08 |     79118    |    98550
6  | 21:54.01 |  4:51.58 |     98551    |   120433
7  | 26:45.59 |  6:11.07 |    120434    |   148265
8  | 32:56.66 |  3:35.21 |    148266    |   164411
9  | 36:32.12 |  3:56.55 |    164412    |   182166
10  | 40:28.67 |  5:08.24 |    182167    |   205290
Range status and errors
Selected range
Filename C:\Users\workutagin\Desktop\Dracula - Swing Of Death  2015\Dracula - Swing Of Death.wav
Peak level 100.0 %
Extraction speed 1.9 X
Range quality 100.0 %
Test CRC 69DF9DBA
Copy CRC 69DF9DBA
Copy OK
No errors occurred
AccurateRip summary
Track  1  not present in database
Track  2  not present in database
Track  3  not present in database
Track  4  not present in database
Track  5  not present in database
Track  6  not present in database
Track  7  not present in database
Track  8  not present in database
Track  9  not present in database
Track 10  not present in database
None of the tracks are present in the AccurateRip database
End of status report

Индексная карта (non-compilant .cue)

REM GENRE "Heavy Metal"
REM DATE 2015
REM DISCID 7C0AB10A
REM COMMENT "ExactAudioCopy v1.0b3"
PERFORMER "Dracula"
TITLE "Swing Of Death"
FILE "Dracula - Swing Of Death.flac" WAVE
TRACK 01 AUDIO
TITLE "Hands of Your God"
PERFORMER "Trond Holter Jorn Lande"
INDEX 01 00:00:00
TRACK 02 AUDIO
TITLE "Walking on Water"
PERFORMER "Trond Holter Jorn Lande"
INDEX 00 03:38:59
INDEX 01 03:39:39
TRACK 03 AUDIO
TITLE "Swing of Death"
PERFORMER "Trond Holter Jorn Lande"
INDEX 00 09:22:34
INDEX 01 09:22:48
TRACK 04 AUDIO
TITLE "Masquerade Ball"
PERFORMER "Trond Holter Jorn Lande"
INDEX 00 14:00:21
INDEX 01 14:01:29
TRACK 05 AUDIO
TITLE "Save Me"
PERFORMER "Trond Holter Jorn Lande"
INDEX 00 17:34:48
INDEX 01 17:34:68
TRACK 06 AUDIO
TITLE "River of Tears"
PERFORMER "Trond Holter Jorn Lande"
INDEX 00 21:53:52
INDEX 01 21:54:01
TRACK 07 AUDIO
TITLE "Queen of the Dead"
PERFORMER "Trond Holter Jorn Lande"
INDEX 00 26:44:46
INDEX 01 26:45:59
TRACK 08 AUDIO
TITLE "Into the Dark"
PERFORMER "Trond Holter Jorn Lande"
INDEX 00 32:56:51
INDEX 01 32:56:66
TRACK 09 AUDIO
TITLE "True love, Through Blood"
PERFORMER "Trond Holter Jorn Lande"
INDEX 00 36:30:45
INDEX 01 36:32:12
TRACK 10 AUDIO
TITLE "Under the Gun"
PERFORMER "Trond Holter Jorn Lande"
INDEX 00 40:28:20
INDEX 01 40:28:67

Скриншот спектра частот

--Не забываем говорить
Яндекс.Метрика
Рейтинг@Mail.ru