(Power Metal) Blind Guardian - Beyond The Red Mirror - 2015 [FLAC, image+.cue, lossless]

 

Создавать темы 09-Фев-2015 21:23

-Blind Guardian / Beyond The Red Mirror-- Год издания: 2015
Страна: Germany
Жанр: Power Metal
Продолжительность: 01:11:15-Лейбл издания: Nuclear Blast Records
Страна-выпуска диска: Germany
Номер по каталогу: 27361 32720
Формат: FLAC
Битрейт аудио: lossless
Тип рипа: image+.cue
Наличие сканов в содержимом раздачи: да
-

Трэклист

01. The Ninth Wave (09:30)
02. Twilight Of The Gods (04:52)
03. Prophecies (05:28)
04. At The Edge Of Time (06:56)
05. Ashes Of Eternity (05:42)
06. Distant Memories (Bonus Track) (05:54)
07. The Holy Grail (06:03)
08. The Throne (07:57)
09. Sacred Mind (06:26)
10. Miracle Machine (03:04)
11. Grand Parade (09:30)

Лог создания рипа

Exact Audio Copy V1.0 beta 3 from 29. August 2011
EAC extraction logfile from 28. January 2015, 17:36
Blind Guardian / Beyond The Red Mirror
Used drive  : ATAPI   iHAS122   W   Adapter: 2  ID: 0
Read mode               : Secure
Utilize accurate stream : Yes
Defeat audio cache      : Yes
Make use of C2 pointers : No
Read offset correction                      : 48
Overread into Lead-In and Lead-Out          : No
Fill up missing offset samples with silence : Yes
Delete leading and trailing silent blocks   : No
Null samples used in CRC calculations       : Yes
Used interface                              : Installed external ASPI interface
Used output format              : User Defined Encoder
Selected bitrate                : 1024 kBit/s
Quality                         : High
Add ID3 tag                     : No
Command line compressor         : C:\Program Files\FLAC\flac.exe
Additional command line options : -V -8 -T "Date=%year%" -T "Genre=%genre%" -T"COMMENT=Ripped by  Ilijan" -8 -V %source%
TOC of the extracted CD
Track |   Start  |  Length  | Start sector | End sector
---------------------------------------------------------
1  |  0:00.00 |  9:29.38 |         0    |    42712
2  |  9:29.38 |  4:51.20 |     42713    |    64557
3  | 14:20.58 |  5:27.19 |     64558    |    89101
4  | 19:48.02 |  6:55.32 |     89102    |   120258
5  | 26:43.34 |  5:41.25 |    120259    |   145858
6  | 32:24.59 |  5:53.13 |    145859    |   172346
7  | 38:17.72 |  6:02.20 |    172347    |   199516
8  | 44:20.17 |  7:56.04 |    199517    |   235220
9  | 52:16.21 |  6:25.12 |    235221    |   264107
10  | 58:41.33 |  3:03.52 |    264108    |   277884
11  | 61:45.10 |  9:29.32 |    277885    |   320591
Range status and errors
Selected range
Filename D:\Ilijan\Blind Guardian - Beyond The Red Mirror.wav
Peak level 99.8 %
Extraction speed 4.4 X
Range quality 100.0 %
Test CRC 09F606BE
Copy CRC 09F606BE
Copy OK
No errors occurred
AccurateRip summary
Track  1  not present in database
Track  2  not present in database
Track  3  not present in database
Track  4  not present in database
Track  5  not present in database
Track  6  not present in database
Track  7  not present in database
Track  8  not present in database
Track  9  not present in database
Track 10  not present in database
Track 11  not present in database
None of the tracks are present in the AccurateRip database
End of status report
---- CUETools DB Plugin V2.1.3
[CTDB TOCID: 8BbyD9rDUkqYsVrOaFzdv1EygSU-] disk not present in database, Submit result: 8BbyD9rDUkqYsVrOaFzdv1EygSU- has been uploaded

Индексная карта (non-compilant .cue)

REM GENRE "Power Metal"
REM DATE 2015
REM DISCID 9D10B20B
REM COMMENT "ExactAudioCopy v1.0b3"
PERFORMER "Blind Guardian"
TITLE "Beyond The Red Mirror"
FILE "Blind Guardian - Beyond The Red Mirror.flac" WAVE
TRACK 01 AUDIO
TITLE "The Ninth Wave"
PERFORMER "Blind Guardian"
INDEX 01 00:00:00
TRACK 02 AUDIO
TITLE "Twilight Of The Gods"
PERFORMER "Blind Guardian"
INDEX 00 09:28:33
INDEX 01 09:29:38
TRACK 03 AUDIO
TITLE "Prophecies"
PERFORMER "Blind Guardian"
INDEX 00 14:19:39
INDEX 01 14:20:58
TRACK 04 AUDIO
TITLE "At The Edge Of Time"
PERFORMER "Blind Guardian"
INDEX 01 19:48:02
TRACK 05 AUDIO
TITLE "Ashes Of Eternity"
PERFORMER "Blind Guardian"
INDEX 01 26:43:34
TRACK 06 AUDIO
TITLE "Distant Memories (Bonus Track)"
PERFORMER "Blind Guardian"
INDEX 00 32:23:30
INDEX 01 32:24:59
TRACK 07 AUDIO
TITLE "The Holy Grail"
PERFORMER "Blind Guardian"
INDEX 00 38:16:25
INDEX 01 38:17:72
TRACK 08 AUDIO
TITLE "The Throne"
PERFORMER "Blind Guardian"
INDEX 00 44:19:16
INDEX 01 44:20:17
TRACK 09 AUDIO
TITLE "Sacred Mind"
PERFORMER "Blind Guardian"
INDEX 00 52:15:08
INDEX 01 52:16:21
TRACK 10 AUDIO
TITLE "Miracle Machine"
PERFORMER "Blind Guardian"
INDEX 00 58:38:46
INDEX 01 58:41:33
TRACK 11 AUDIO
TITLE "Grand Parade"
PERFORMER "Blind Guardian"
INDEX 01 61:45:10

Скриншот спектра частот

--Не забываем говорить
Яндекс.Метрика
Рейтинг@Mail.ru