[ Сегодня на трекере фрилич! Идет свободное скачивание без начисления Download ]

(Rock,Classic Rock) Deep Purple - The Platinum Collection (3CD) (remastered 2005) - 1976 [FLAC, image+.cue, lossless]

 

Создавать темы 09-Фев-2015 21:21

-Deep Purple / The Platinum Collection (3CD) (remastered)-- Год издания: 1976
Страна: UK
Жанр: Rock,Classic Rock
Продолжительность: 03:34:29-Лейбл издания: EMI Capitol Music Label
Тип альбома: Compilation
Страна-выпуска диска: UK
Номер по каталогу: 873 5772/1/2/3
Формат: FLAC
Битрейт аудио: lossless
Тип рипа: image+.cue
Наличие сканов в содержимом раздачи: да

Трэклист

CD 1 | 01:11:18

01. Hush (04:27)
02. Mandrake Root (06:12)
03. Hey Joe (07:28)
04. Kentucky Woman (04:43)
05. Wring That Neck (05:13)
06. Shield (06:04)
07. Bird Has Flown (02:54)
08. Emmaretta (03:08)
09. Hallelujah (03:42)
10. Black Night (03:28)
11. Speed King (05:52)
12. Flight Of The Rat (07:53)
13. Child In Time (10:19)

CD 2 | 01:13:07

01. Fireball (03:25)
02. Strange Kind Of Woman (03:52)
03. Demon's Eye (05:21)
04. No One Came (1996 Remix) (06:25)
05. Highway Star (1997 Remix) (06:30)
06. Smoke On The Water (05:42)
07. When A Blind Man Cries (03:31)
08. Space Truckin' (1997 Remix) (04:57)
09. Lazy (10:34)
10. Never Before (Live) (03:58)
11. Woman From Tokyo (05:50)
12. Smooth Dancer (04:10)
13. Mary Long (04:25)
14. Burn (Single Edit) (04:32)

CD 3 | 01:10:05

01. Might Just Take Your Life (04:39)
02. Coronarias Redig (04:54)
03. Stormbringer (04:06)
04. Hold On (05:06)
05. Soldier Of Fortune (03:15)
06. Mistreated (11:36)
07. You Keep On Moving (05:19)
08. Love Child (03:06)
09. Drifter (04:01)
10. Perfect Strangers (06:24)
11. Ted The Mechanic (04:34)
12. Any Full Kno That (04:29)
13. Bludsucker (04:28)
14. Sun Goes Down (04:14)

Лог создания рипа

CD 1

Exact Audio Copy V0.99 prebeta 4 from 23. January 2008
Отчёт EAC об извлечении, выполненном 4. февраля 2010, 15:55
Deep Purple / The Platinum Collection CD-01
Дисковод: PLEXTOR DVDR   PX-810SA   Adapter: 0  ID: 0
Режим чтения                 : Достоверность
Использование точного потока : Да
Отключение кэша аудио        : Да
Использование указателей C2  : Нет
Коррекция смещения при чтении                     : 48
Способность читать области Lead-in и Lead-out     : Нет
Заполнение пропущенных сэмплов тишиной            : Да
Удаление блоков с тишиной в начале и конце        : Нет
При вычислениях CRC использовались нулевые сэмплы : Да
Интерфейс                                         : Встроенный Win32-интерфейс для Win NT/2000
Выходной формат : Внутренние WAV-операции
Формат сэмплов  : 44.100 Гц; 16 бит; стерео
TOC извлечённого CD
Трек |   Старт  | Длительность | Начальный сектор | Конечный сектор
---------------------------------------------------------------------
1  |  0:00.00 |    4:26.63   |           0      |      20012
2  |  4:26.63 |    6:11.62   |       20013      |      47899
3  | 10:38.50 |    7:27.67   |       47900      |      81491
4  | 18:06.42 |    4:42.60   |       81492      |     102701
5  | 22:49.27 |    5:12.19   |      102702      |     126120
6  | 28:01.46 |    6:03.51   |      126121      |     153396
7  | 34:05.22 |    2:53.21   |      153397      |     166392
8  | 36:58.43 |    3:07.62   |      166393      |     180479
9  | 40:06.30 |    3:41.68   |      180480      |     197122
10  | 43:48.23 |    3:27.20   |      197123      |     212667
11  | 47:15.43 |    5:51.10   |      212668      |     239002
12  | 53:06.53 |    7:52.72   |      239003      |     274474
13  | 60:59.50 |   10:18.21   |      274475      |     320845
14  | 73:49.71 |    5:10.70   |      332246      |     355565
Характеристики диапазона извлечения и сообщения об ошибках
Выбранный диапазон
Имя файла E:\Загрузка\Out\Deep Purple - The Platinum Collection (2005)\Deep Purple - The Platinum Collection CD-01.wav
Пиковый уровень 99.5 %
Качество диапазона 100.0 %
CRC копии 3C6C33EC
Копирование... OK
Ошибок не произошло
AccurateRip: сводка
Трек  1  точное извлечение (доверие 2)  [23D9CF29]
Трек  2  точное извлечение (доверие 3)  [869209F5]
Трек  3  точное извлечение (доверие 3)  [1383E119]
Трек  4  точное извлечение (доверие 4)  [10E583EF]
Трек  5  точное извлечение (доверие 3)  [A40FD2D2]
Трек  6  точное извлечение (доверие 4)  [A0FAAE79]
Трек  7  точное извлечение (доверие 4)  [BB6D9C8D]
Трек  8  точное извлечение (доверие 4)  [C772BB22]
Трек  9  точное извлечение (доверие 4)  [10BC006C]
Трек 10  точное извлечение (доверие 4)  [88FA2131]
Трек 11  точное извлечение (доверие 4)  [7128D153]
Трек 12  точное извлечение (доверие 4)  [8196F36B]
Трек 13  точное извлечение (доверие 4)  [2D507714]
Все треки извлечены точно
Конец отчёта

CD 2

Exact Audio Copy V0.99 prebeta 4 from 23. January 2008
Отчёт EAC об извлечении, выполненном 4. февраля 2010, 16:07
Deep Purple / The Platinum Collection CD-02
Дисковод: PLEXTOR DVDR   PX-810SA   Adapter: 0  ID: 0
Режим чтения                 : Достоверность
Использование точного потока : Да
Отключение кэша аудио        : Да
Использование указателей C2  : Нет
Коррекция смещения при чтении                     : 48
Способность читать области Lead-in и Lead-out     : Нет
Заполнение пропущенных сэмплов тишиной            : Да
Удаление блоков с тишиной в начале и конце        : Нет
При вычислениях CRC использовались нулевые сэмплы : Да
Интерфейс                                         : Встроенный Win32-интерфейс для Win NT/2000
Выходной формат : Внутренние WAV-операции
Формат сэмплов  : 44.100 Гц; 16 бит; стерео
TOC извлечённого CD
Трек |   Старт  | Длительность | Начальный сектор | Конечный сектор
---------------------------------------------------------------------
1  |  0:00.00 |    3:24.52   |           0      |      15351
2  |  3:24.52 |    3:51.48   |       15352      |      32724
3  |  7:16.25 |    5:20.38   |       32725      |      56762
4  | 12:36.63 |    6:24.43   |       56763      |      85605
5  | 19:01.31 |    6:29.57   |       85606      |     114837
6  | 25:31.13 |    5:41.06   |      114838      |     140418
7  | 31:12.19 |    3:30.66   |      140419      |     156234
8  | 34:43.10 |    4:56.29   |      156235      |     178463
9  | 39:39.39 |   10:33.40   |      178464      |     225978
10  | 50:13.04 |    3:57.07   |      225979      |     243760
11  | 54:10.11 |    5:49.54   |      243761      |     269989
12  | 59:59.65 |    4:09.58   |      269990      |     288722
13  | 64:09.48 |    4:24.58   |      288723      |     308580
14  | 68:34.31 |    4:31.69   |      308581      |     328974
15  | 75:38.25 |    3:24.11   |      340375      |     355685
Характеристики диапазона извлечения и сообщения об ошибках
Выбранный диапазон
Имя файла E:\Загрузка\Out\Deep Purple - The Platinum Collection (2005)\Deep Purple - The Platinum Collection CD-02.wav
Пиковый уровень 99.5 %
Качество диапазона 100.0 %
CRC копии E5DBEA22
Копирование... OK
Ошибок не произошло
AccurateRip: сводка
Трек  1  точное извлечение (доверие 3)  [E8A0BDDF]
Трек  2  точное извлечение (доверие 4)  [E88060C1]
Трек  3  точное извлечение (доверие 4)  [C8A03E27]
Трек  4  точное извлечение (доверие 4)  [A7E0948D]
Трек  5  точное извлечение (доверие 4)  [6E9A6BF8]
Трек  6  точное извлечение (доверие 3)  [24BDBA05]
Трек  7  точное извлечение (доверие 4)  [06D401CF]
Трек  8  точное извлечение (доверие 4)  [5ADB9667]
Трек  9  точное извлечение (доверие 4)  [170FFA03]
Трек 10  точное извлечение (доверие 4)  [3D2C8BEC]
Трек 11  точное извлечение (доверие 4)  [01E005D6]
Трек 12  точное извлечение (доверие 4)  [80AE088E]
Трек 13  точное извлечение (доверие 4)  [DEB764FB]
Трек 14  точное извлечение (доверие 4)  [AF414E99]
Все треки извлечены точно
Конец отчёта

CD 3

Exact Audio Copy V0.99 prebeta 4 from 23. January 2008
Отчёт EAC об извлечении, выполненном 4. февраля 2010, 16:21
Deep Purple / The Platinum Collection CD-03
Дисковод: PLEXTOR DVDR   PX-810SA   Adapter: 0  ID: 0
Режим чтения                 : Достоверность
Использование точного потока : Да
Отключение кэша аудио        : Да
Использование указателей C2  : Нет
Коррекция смещения при чтении                     : 48
Способность читать области Lead-in и Lead-out     : Нет
Заполнение пропущенных сэмплов тишиной            : Да
Удаление блоков с тишиной в начале и конце        : Нет
При вычислениях CRC использовались нулевые сэмплы : Да
Интерфейс                                         : Встроенный Win32-интерфейс для Win NT/2000
Выходной формат : Внутренние WAV-операции
Формат сэмплов  : 44.100 Гц; 16 бит; стерео
TOC извлечённого CD
Трек |   Старт  | Длительность | Начальный сектор | Конечный сектор
---------------------------------------------------------------------
1  |  0:00.00 |    4:38.68   |           0      |      20917
2  |  4:38.68 |    4:53.68   |       20918      |      42960
3  |  9:32.61 |    4:05.17   |       42961      |      61352
4  | 13:38.03 |    5:05.40   |       61353      |      84267
5  | 18:43.43 |    3:14.32   |       84268      |      98849
6  | 21:58.00 |   11:35.29   |       98850      |     151003
7  | 33:33.29 |    5:18.34   |      151004      |     174887
8  | 38:51.63 |    3:05.40   |      174888      |     188802
9  | 41:57.28 |    4:00.54   |      188803      |     206856
10  | 45:58.07 |    6:23.05   |      206857      |     235586
11  | 52:21.12 |    4:33.27   |      235587      |     256088
12  | 56:54.39 |    4:28.15   |      256089      |     276203
13  | 61:22.54 |    4:27.70   |      276204      |     296298
14  | 65:50.49 |    4:13.59   |      296299      |     315332
15  | 72:36.33 |    6:00.62   |      326733      |     353794
Характеристики диапазона извлечения и сообщения об ошибках
Выбранный диапазон
Имя файла E:\Загрузка\Out\Deep Purple - The Platinum Collection (2005)\Deep Purple - The Platinum Collection CD-03.wav
Пиковый уровень 100.0 %
Качество диапазона 100.0 %
CRC копии FC23F963
Копирование... OK
Ошибок не произошло
AccurateRip: сводка
Трек  1  точное извлечение (доверие 3)  [5418B192]
Трек  2  точное извлечение (доверие 3)  [5AD232B4]
Трек  3  точное извлечение (доверие 3)  [C42649E7]
Трек  4  точное извлечение (доверие 4)  [193F5B59]
Трек  5  точное извлечение (доверие 4)  [4B2BFC0D]
Трек  6  точное извлечение (доверие 3)  [787E021B]
Трек  7  точное извлечение (доверие 4)  [F3456B44]
Трек  8  точное извлечение (доверие 3)  [84B941EF]
Трек  9  точное извлечение (доверие 4)  [2644CD19]
Трек 10  точное извлечение (доверие 2)  [ACFD1B38]
Трек 11  точное извлечение (доверие 2)  [7F12816A]
Трек 12  точное извлечение (доверие 2)  [EAC2B292]
Трек 13  точное извлечение (доверие 2)  [596DC1AE]
Трек 14  точное извлечение (доверие 2)  [95764305]
Все треки извлечены точно
Конец отчёта

Индексная карта (non-compilant .cue)

CD 1

REM GENRE Rock
REM DATE 2005
REM DISCID BB12840E
REM COMMENT "ExactAudioCopy v0.99pb4"
PERFORMER "Deep Purple"
TITLE "The Platinum Collection CD-01"
FILE "Deep Purple - The Platinum Collection CD-01.flac" WAVE
TRACK 01 AUDIO
TITLE "Hush"
PERFORMER "Deep Purple"
INDEX 01 00:00:00
TRACK 02 AUDIO
TITLE "Mandrake Root"
PERFORMER "Deep Purple"
INDEX 00 04:26:27
INDEX 01 04:26:63
TRACK 03 AUDIO
TITLE "Hey Joe"
PERFORMER "Deep Purple"
INDEX 00 10:36:71
INDEX 01 10:38:50
TRACK 04 AUDIO
TITLE "Kentucky Woman"
PERFORMER "Deep Purple"
INDEX 00 18:06:14
INDEX 01 18:06:42
TRACK 05 AUDIO
TITLE "Wring That Neck"
PERFORMER "Deep Purple"
INDEX 00 22:48:61
INDEX 01 22:49:27
TRACK 06 AUDIO
TITLE "Shield"
PERFORMER "Deep Purple"
INDEX 00 28:01:26
INDEX 01 28:01:46
TRACK 07 AUDIO
TITLE "Bird Has Flown"
PERFORMER "Deep Purple"
INDEX 00 34:04:51
INDEX 01 34:05:22
TRACK 08 AUDIO
TITLE "Emmaretta"
PERFORMER "Deep Purple"
INDEX 00 36:57:49
INDEX 01 36:58:43
TRACK 09 AUDIO
TITLE "Hallelujah"
PERFORMER "Deep Purple"
INDEX 00 40:06:07
INDEX 01 40:06:30
TRACK 10 AUDIO
TITLE "Black Night"
PERFORMER "Deep Purple"
INDEX 00 43:47:39
INDEX 01 43:48:23
TRACK 11 AUDIO
TITLE "Speed King"
PERFORMER "Deep Purple"
INDEX 00 47:15:18
INDEX 01 47:15:43
TRACK 12 AUDIO
TITLE "Flight Of The Rat"
PERFORMER "Deep Purple"
INDEX 00 53:06:01
INDEX 01 53:06:53
TRACK 13 AUDIO
TITLE "Child In Time"
PERFORMER "Deep Purple"
INDEX 00 60:59:19
INDEX 01 60:59:50

CD 2

REM GENRE Rock
REM DATE 2005
REM DISCID BC12860F
REM COMMENT "ExactAudioCopy v0.99pb4"
PERFORMER "Deep Purple"
TITLE "The Platinum Collection CD-02"
FILE "Deep Purple - The Platinum Collection CD-02.flac" WAVE
TRACK 01 AUDIO
TITLE "Fireball"
PERFORMER "Deep Purple"
INDEX 01 00:00:00
TRACK 02 AUDIO
TITLE "Strange Kind Of Woman"
PERFORMER "Deep Purple"
INDEX 00 03:23:38
INDEX 01 03:24:52
TRACK 03 AUDIO
TITLE "Demon's Eye"
PERFORMER "Deep Purple"
INDEX 00 07:16:03
INDEX 01 07:16:25
TRACK 04 AUDIO
TITLE "No One Came (1996 Remix)"
PERFORMER "Deep Purple"
INDEX 00 12:35:58
INDEX 01 12:36:63
TRACK 05 AUDIO
TITLE "Highway Star (1997 Remix)"
PERFORMER "Deep Purple"
INDEX 00 19:00:68
INDEX 01 19:01:31
TRACK 06 AUDIO
TITLE "Smoke On The Water"
PERFORMER "Deep Purple"
INDEX 00 25:30:35
INDEX 01 25:31:13
TRACK 07 AUDIO
TITLE "When A Blind Man Cries"
PERFORMER "Deep Purple"
INDEX 00 31:11:21
INDEX 01 31:12:19
TRACK 08 AUDIO
TITLE "Space Truckin' (1997 Remix)"
PERFORMER "Deep Purple"
INDEX 00 34:42:54
INDEX 01 34:43:10
TRACK 09 AUDIO
TITLE "Lazy"
PERFORMER "Deep Purple"
INDEX 00 39:37:57
INDEX 01 39:39:39
TRACK 10 AUDIO
TITLE "Never Before (Live)"
PERFORMER "Deep Purple"
INDEX 00 50:11:51
INDEX 01 50:13:04
TRACK 11 AUDIO
TITLE "Woman From Tokyo"
PERFORMER "Deep Purple"
INDEX 00 54:08:70
INDEX 01 54:10:11
TRACK 12 AUDIO
TITLE "Smooth Dancer"
PERFORMER "Deep Purple"
INDEX 00 59:59:62
INDEX 01 59:59:65
TRACK 13 AUDIO
TITLE "Mary Long"
PERFORMER "Deep Purple"
INDEX 00 64:09:12
INDEX 01 64:09:48
TRACK 14 AUDIO
TITLE "Burn (Single Edit)"
PERFORMER "Deep Purple"
INDEX 00 68:33:52
INDEX 01 68:34:31

CD 3

REM GENRE Rock
REM DATE 2005
REM DISCID BD126D0F
REM COMMENT "ExactAudioCopy v0.99pb4"
PERFORMER "Deep Purple"
TITLE "The Platinum Collection CD-03"
FILE "Deep Purple - The Platinum Collection CD-03.flac" WAVE
TRACK 01 AUDIO
TITLE "Might Just Take Your Life"
PERFORMER "Deep Purple"
INDEX 01 00:00:00
TRACK 02 AUDIO
TITLE "Coronarias Redig"
PERFORMER "Deep Purple"
INDEX 01 04:38:68
TRACK 03 AUDIO
TITLE "Stormbringer"
PERFORMER "Deep Purple"
INDEX 00 09:32:31
INDEX 01 09:32:61
TRACK 04 AUDIO
TITLE "Hold On"
PERFORMER "Deep Purple"
INDEX 00 13:37:54
INDEX 01 13:38:03
TRACK 05 AUDIO
TITLE "Soldier Of Fortune"
PERFORMER "Deep Purple"
INDEX 00 18:43:12
INDEX 01 18:43:43
TRACK 06 AUDIO
TITLE "Mistreated"
PERFORMER "Deep Purple"
INDEX 00 21:57:41
INDEX 01 21:58:00
TRACK 07 AUDIO
TITLE "You Keep On Moving"
PERFORMER "Deep Purple"
INDEX 00 33:32:47
INDEX 01 33:33:29
TRACK 08 AUDIO
TITLE "Love Child"
PERFORMER "Deep Purple"
INDEX 00 38:51:19
INDEX 01 38:51:63
TRACK 09 AUDIO
TITLE "Drifter"
PERFORMER "Deep Purple"
INDEX 00 41:56:24
INDEX 01 41:57:28
TRACK 10 AUDIO
TITLE "Perfect Strangers"
PERFORMER "Deep Purple"
INDEX 00 45:57:52
INDEX 01 45:58:07
TRACK 11 AUDIO
TITLE "Ted The Mechanic"
PERFORMER "Deep Purple"
INDEX 00 52:20:28
INDEX 01 52:21:12
TRACK 12 AUDIO
TITLE "Any Full Kno That"
PERFORMER "Deep Purple"
INDEX 00 56:53:65
INDEX 01 56:54:39
TRACK 13 AUDIO
TITLE "Bludsucker"
PERFORMER "Deep Purple"
INDEX 00 61:21:50
INDEX 01 61:22:54
TRACK 14 AUDIO
TITLE "Sun Goes Down"
PERFORMER "Deep Purple"
INDEX 00 65:50:36
INDEX 01 65:50:49

Скриншот спектра частот

информация о сборнике:

Это практически был конец Deep Purple. Никто не думал, хотя все надеялись.... В основу альбома легли записи одного из последних концертов Mk4 на Long Beach Arena (27.02.76), к которым в качестве бонуса добавлено несколько треков с состоявшегося месяцем ранее концерта для американского радио-шоу "The King Biscuit Flower Hour" (26.01.76). Из живых концертов состава МК-IV эта компиляция, пожалуй, самая лучшая. На этот раз Tommy Bolin проявил себя молодцом. Очень интересно звучaт Lazy и Highway Star в исполнении "веселых ребят" Дэвида и Гленна.Замену Ричи Блэкмору нашли в лице Томми Болина, американского джаз-рокового гитариста, известного благодаря мастерскому использованию эхо-машины «Echoplex» и характерному «сочному» звучанию педали «Fuzz». Согласно одной версии (изложенной в приложении к 4-томному бокс-сету) музыканта рекомендовал Дэвид Ковердейл. Кроме того, в интервью Melody Maker в июне 1975 года (опубликованному на сайте Deep Purple Appreciation Society), Болин рассказывал о встрече с Блэкмором и его рекомендациях группе.
Томми Болин, игравший в начале карьеры в группах Denny & The Triumphs и American Standard, получил известность в джазовой среде благодаря участию в Zephyr. Знаменитый барабанщик Билли Кобхэм пригласил его в Нью-Йорк, где Болин концертировал и записывался с такими джазовыми легендами, как Иэн Хаммер, Альфонс Моузон, Джереми Стиг. Болин обрел популярность благодаря альбому Кобхема Spectrum (1973), выступал сольно, а позже вошёл в состав группы The James Gang (альбомы Bang (1973) и Miami (1974)). В новом альбоме Deep Purple cостава MK-IV Come Taste the Band (вышедшем в США в ноябре 1975 года) влияние Болина оказалось решающим: в соавторстве с Хьюзом и Ковердейлом он написал большую часть материала. Композиция «Gettin' Tighter» стала популярным концертным хитом, символизировавшим новое музыкальное направление, предпринятое группой. Группа дала серию успешных концертов в Новом Свете, но в Великобритании столкнулась с недовольством традиционной аудитории новым гитаристом, стиль игры которого отличался от ожидаемого. Ко всему прочему добавились проблемы Томми Болина с наркотиками. Концерты в марте 1976 года в Лондоне и Ливерпуле были практически сорваны публикой, требовавшей более привычного Блэкмора. Подготовка к британским концертам была форсирована менеджментом Deep Purple в надежде отвлечь Болина от начала турне со своей группой. Изначальным условием Болина для вхождения в группу была возможность параллельной сольной работы, как сейчас происходит со Стивом Морсом. В итоге после неудачи в Британии концерты во Франции и Германии были отменены. На тот момент в группе сложилось два лагеря: в первом были Хьюз и Болин, предпочитавшие импровизации в джазовом и танцевальном ключе, в другом — Ковердейл, Лорд и Пэйс, позднее вошедшие в состав группы Whitesnake, музыка которой была больше ориентирована на хит-парады. По версии, представленной историографом группы Саймоном Робинсоном и позднее приводившейся в русскоязычных изданиях, после концерта в Ливерпуле последние решили прекратить существование Deep Purple, однако из следующего интервью Болина видно, что он, наконец, взял паузу для сольной работы в поддержку альбома Teaser: “ "Не думайте, что я официально уже не в составе Deep Purple. Я просто сказал им, что освобожусь к концу месяца, но они ничего не написали мне, ничего не предпринимали. Только один человек из них присутствовал на моём дебютном выступлении (концерт "Tommy Bolin Band" в зале "The Roxy Theater", West Hollywood, CA) - Ян Пейс, с которым у нас были, наверное, наиболее отдалённые отношения. Я всё ещё не знаю толком, каково моё положение в группе. После того, как я покинул тур, они не звонили мне, не писали и, так или иначе, я чувствую, что менеджмент просто использовал меня, потому что если вы в ком-то заинтересованы - вы предпринимаете что-то по отношению к нему. Ну, сколько стоит, например, отправить телеграмму - я это имею ввиду? - Нисколько по сравнению с теми деньгами, которые они имеют; но они не сделали даже этого. И они знают об этом. Они знают, что происходит, но люди, какие они ни есть, - они такими же и остаются…
SOUNDS MAGAZINE, 3 июля 1976, автор интервью Питер Крезенти (Peter Cresenti) ”
Официально о распаде Deep Purple было объявлено в июле.
--Не забываем говорить
Яндекс.Метрика
Рейтинг@Mail.ru