Город героев / Big Hero 6 (Дон Холл / Don Hall, Крис Уильямс / Chris Williams) [2014 г., мультфильм, фантастика, комедия, семейный, боевик, BDRip, 720p] Dub (Чистый звук) + Original (Eng)

 

Создавать темы 09-Фев-2015 09:25

-Город героев / Big Hero 6- Производство: США, Walt Disney Animation Studios, Walt Disney Pictures
Год выпуска: 2014 г.
Жанр: мультфильм, фантастика, комедия, семейный, боевик
Продолжительность: 01:41:52
Мировая премьера: 23 октября 2014
Российская премьера: 25 октября 2014, «WDSSPR
Дата выхода DVD: 3 марта 2015, «Уолт Дисней Компани СНГ»
Дата выхода Blu-Ray: 3 марта 2015, «Уолт Дисней Компани СНГ»
Перевод: Профессиональный (полное дублирование) [Чистый звук]
Оригинальный аудиопоток: английский-Режиссер: Дон Холл / Don Hall, Крис Уильямс / Chris Williams
В ролях: Даниил Рагин, Максим Сергеев, Аделина Червякова, Валерий Смекалов, Юлия Рудина-Описание: Юный Хиро Хамада — прирожденный изобретатель и гений конструирования роботов. Вместе со старшим братом Тадаши они воплощают в жизнь самые передовые идеи в Техническом университете города будущего Сан-Франсокио. После серии загадочных событий друзья оказываются в центре коварного заговора. Отчаявшись, Хиро решает использовать веселого и добродушного экспериментального робота Бэймакса, перепрограммировав его в неуязвимую боевую машину.- -Качество видео: BDRip
Контейнер: MKV
Стандарт разрешения: 720p
Видео кодек: MPEG-4 AVC
Аудио кодек: AC3, DTS
Видео: 1280x536 (2.40:1), 23.976 fps, MPEG-4 AVC ~3 091 kbps avg, 0.188 bit/pixel
Аудио: 48 kHz, AC3, 2 ch, ~128 kbps - Rus
Аудио: 48 kHz, DTS, 6 ch, ~1 509 kbps - Eng
Cубтитры: отсутствуют

Media Info

General
Unique ID : 244552205838474921954986885984200263959 (0xB7FB0AA78B67CBFF99BACAAF6C598917)
Complete name : D:\Gorod.Geroev.2014.D.BDRip.720p.mkv
Format : Matroska
Format version : Version 4 / Version 2
File size : 3.37 GiB
Duration : 1h 41mn
Overall bit rate : 4 730 Kbps
Encoded date : UTC 2015-02-04 20:48:49
Writing application : mkvmerge v6.9.1 ('Blue Panther') 64bit built on Apr 18 2014 18:23:38
Writing library : libebml v1.3.0 + libmatroska v1.4.1
Video
ID : 1
Format : AVC
Format/Info : Advanced Video Codec
Format profile : [email protected]
Format settings, CABAC : Yes
Format settings, ReFrames : 5 frames
Codec ID : V_MPEG4/ISO/AVC
Duration : 1h 41mn
Bit rate : 3 091 Kbps
Width : 1 280 pixels
Height : 536 pixels
Display aspect ratio : 2.40:1
Frame rate mode : Constant
Frame rate : 23.976 fps
Color space : YUV
Chroma subsampling : 4:2:0
Bit depth : 8 bits
Scan type : Progressive
Bits/(Pixel*Frame) : 0.188
Stream size : 2.13 GiB (63%)
Writing library : x264 core 144 r2525 40bb568
Encoding settings : cabac=1 / ref=5 / deblock=1:0:0 / analyse=0x3:0x133 / me=umh / subme=7 / psy=1 / psy_rd=1.00:0.00 / mixed_ref=1 / me_range=16 / chroma_me=1 / trellis=1 / 8x8dct=1 / cqm=0 / deadzone=21,11 / fast_pskip=0 / chroma_qp_offset=-2 / threads=18 / lookahead_threads=3 / sliced_threads=0 / nr=0 / decimate=1 / interlaced=0 / bluray_compat=0 / constrained_intra=0 / bframes=3 / b_pyramid=2 / b_adapt=1 / b_bias=0 / direct=1 / weightb=1 / open_gop=0 / weightp=2 / keyint=250 / keyint_min=23 / scenecut=40 / intra_refresh=0 / rc_lookahead=40 / rc=2pass / mbtree=1 / bitrate=3091 / ratetol=1.0 / qcomp=0.60 / qpmin=0 / qpmax=69 / qpstep=4 / cplxblur=20.0 / qblur=0.5 / ip_ratio=1.40 / aq=1:1.00
Language : English
Default : Yes
Forced : No
Audio #1
ID : 2
Format : AC-3
Format/Info : Audio Coding 3
Mode extension : CM (complete main)
Format settings, Endianness : Big
Codec ID : A_AC3
Duration : 1h 41mn
Bit rate mode : Constant
Bit rate : 128 Kbps
Channel(s) : 2 channels
Channel positions : Front: L R
Sampling rate : 48.0 KHz
Bit depth : 16 bits
Compression mode : Lossy
Delay relative to video : 10ms
Stream size : 93.3 MiB (3%)
Language : Russian
Default : Yes
Forced : No
Audio #2
ID : 3
Format : DTS
Format/Info : Digital Theater Systems
Mode : 16
Format settings, Endianness : Big
Codec ID : A_DTS
Duration : 1h 41mn
Bit rate mode : Constant
Bit rate : 1 509 Kbps
Channel(s) : 6 channels
Channel positions : Front: L C R, Side: L R, LFE
Sampling rate : 48.0 KHz
Bit depth : 24 bits
Compression mode : Lossy
Stream size : 1.07 GiB (32%)
Language : English
Default : No
Forced : No
Menu
00:00:00.000 : en:00:00:00.000
00:07:15.685 : en:00:07:15.685
00:14:37.835 : en:00:14:37.835
00:21:49.183 : en:00:21:49.183
00:24:32.888 : en:00:24:32.888
00:29:34.731 : en:00:29:34.731
00:36:58.091 : en:00:36:58.091
00:44:18.322 : en:00:44:18.322
00:50:49.088 : en:00:50:49.088
00:54:33.020 : en:00:54:33.020
01:00:44.140 : en:01:00:44.140
01:07:12.612 : en:01:07:12.612
01:11:54.644 : en:01:11:54.644
01:16:26.665 : en:01:16:26.665
01:24:44.162 : en:01:24:44.162
01:31:52.757 : en:01:31:52.757

Скриншоты

Яндекс.Метрика
Рейтинг@Mail.ru