Замужем За Мафией / Married To The Mob (Джонатан Демме / Jonathan Demme) [1988 г., комедия, криминал, BDRip-AVC] AVO (Михалёв, Сербин, Живов)

 

Создавать темы 09-Фев-2015 08:59

Замужем За Мафией / Married To The Mob«Angela always wanted to give marriage a shot»- Год выпуска: 1988
Производство: США
Жанр: криминальная комедия
Продолжительность: 01:44:03
Перевод: Авторский (одноголосый, закадровый) Михалёв, Сербин, Живов
Субтитры: нет
Режиссер: Джонатан Демме / Jonathan Demme
В ролях: Мишель Пфайффер / Michelle Pfeiffer, Мэттью Модайн / Matthew Modine, Джоан Кьюсак / Joan Cusack, Трэйси Уолтер / Tracey Walter, Джо Спинелл / Joe Spinell, Алек Болдуин / Alec Baldwin, Эл Льюис / Al Lewis, Трей Уилсон / Trey Wilson, Пол Лэзар / Paul Lazar, О-Лан Джоунс / O-Lan Jones, Обба Бабатунде / Obba Babatunde, Оливер Платт / Oliver Platt, Чарлз Нэпьер / Charles Napier, Нэнси Трэвис / Nancy Travis, Мерседес Руэл / Mercedes Ruehl, Дин Стокуэлл / Dean Stockwell, Фрэнк Джио / Frank Gio, Дэвид Йохансен / David Johansen, Мария Карнилова / Maria Karnilova, Стив Вигнари / Steve Vignary, Энтони Дж. Ничи / Anthony J. Nici, Гэри Клэр / Gary Klar, Крис Айзэк / Chris Isaak, Эллен Фоули / Ellen Foley, Систер Кэрол Ист / Sister Carol East, Уоррен Миллер / Warren Miller
Описание: Легкая и очень приятная гангстерская комедия с отличительным почерком режиссера. Восхитительная актерская игра Пфайффер, Модайна и Стокуэлла. Начинается все на Лонг-Айленде, где дома набиты дорогой средиземноморской мебелью, люди одеваются в дорогие костюмы в полосочку, а женщины проводят почти время в парикмахерских. Анжеле Де Марко (Пфайффер), жене подающего надежды гангстера Фрэнка Де Марко (Болдуин), надоела криминальная ментальность окружающих ее людей, и она хочет смены обстановки. После того как Фрэнка застукал со своей любовницей и убил босс мафии Дон Тони Руссо (Стокуэлл), двое агентов ФБР (Модайн и Плэтт) решили, что Анжела и Тони состоят в любовной связи. Женщина вместе с сыном (Ничи) переезжает в квартирку на Манхэттэне, но агенты продолжают слежку, связывая уже ее деятельность с грязными делами мафии. Между Анжелой и агентом Майком Дауни (Модайн) вспыхивает страсть... Последняя роль в кино характерного актера, ветерана Джо Спинелла в маленькой роли подручного Стокуэлла. В 70-е и 80-е годы он снялся в 40 фильмах и умер в 1989 году. Хочу также выделить чрезвычайно удачное музыкальное сопровождение. (Иванов М.)

Качество: BDRip-AVC
Контейнер: MKV
Видео кодек: MPEG-4 AVC / h.264
Видео: 1056x572 / 3432 kbps / 23,976 fps / 1,85:1 / High Profile 4.1
Аудио#1: 48 kHz, AC3 Dolby Digital, 3/2 (L,C,R,l,r) + LFE ch, ~448 kbps avg - Михалев;
Аудио#2: 48 kHz, AC3 Dolby Digital, 3/2 (L,C,R,l,r) + LFE ch, ~448 kbps avg - Сербин;
Аудио#3: 48 kHz, AC3 Dolby Digital, 3/2 (L,C,R,l,r) + LFE ch, ~448 kbps avg - Живов;

Media Info

Формат                                   : Matroska
Версия формата : Version 4 / Version 2
Размер файла : 2,91 Гбайт
Продолжительность : 1 ч. 44 м.
Общий поток : 4006 Кбит/сек
Название фильма : Married to the Mob.1988.x264.BDRip-AVC.Mihalev.Serbin.Zhivov -=anton966=-
Дата кодирования : UTC 2015-02-05 19:42:14
Программа кодирования : mkvmerge v7.5.0 ('Glass Culture') 64bit built on Jan 4 2015 16:48:44
Библиотека кодирования : libebml v1.3.1 + libmatroska v1.4.2
DURATION : 01:44:03.040000000
NUMBER_OF_FRAMES : 195095
NUMBER_OF_BYTES : 149832960
_STATISTICS_WRITING_APP : mkvmerge v7.5.0 ('Glass Culture') 64bit built on Jan 4 2015 16:48:44
_STATISTICS_WRITING_DATE_UTC : 2015-02-05 19:42:14
_STATISTICS_TAGS : BPS DURATION NUMBER_OF_FRAMES NUMBER_OF_BYTES
Видео
Идентификатор : 1
Формат : AVC
Формат/Информация : Advanced Video Codec
Профиль формата : [email protected]
Параметр CABAC формата : Да
Параметр ReFrames формата : 9 кадров
Идентификатор кодека : V_MPEG4/ISO/AVC
Продолжительность : 1 ч. 44 м.
Битрейт : 3351 Кбит/сек
Ширина : 1056 пикселей
Высота : 572 пикселя
Соотношение сторон : 1,85:1
Режим частоты кадров : Постоянный
Частота кадров : 23,976 кадра/сек
Цветовое пространство : YUV
Субдискретизация насыщенности : 4:2:0
Битовая глубина : 8 бит
Тип развёртки : Прогрессивная
Бит/(Пиксели*Кадры) : 0.231
Размер потока : 2,44 Гбайт (84%)
Заголовок : Married to the Mob.1988.x264.BDRip-AVC (1056x572)
Библиотека кодирования : x264 core 144 r2525 40bb568
Настройки программы : cabac=1 / ref=9 / deblock=1:-1:-1 / analyse=0x3:0x113 / me=umh / subme=11 / psy=1 / psy_rd=1.20:0.15 / mixed_ref=1 / me_range=32 / chroma_me=1 / trellis=2 / 8x8dct=1 / cqm=0 / deadzone=21,11 / fast_pskip=1 / chroma_qp_offset=-3 / threads=12 / lookahead_threads=3 / sliced_threads=0 / nr=0 / decimate=1 / interlaced=0 / bluray_compat=0 / constrained_intra=0 / bframes=13 / b_pyramid=2 / b_adapt=2 / b_bias=0 / direct=1 / weightb=1 / open_gop=0 / weightp=2 / keyint=250 / keyint_min=23 / scenecut=40 / intra_refresh=0 / rc=crf / mbtree=0 / crf=19.0 / qcomp=0.60 / qpmin=0 / qpmax=69 / qpstep=4 / ip_ratio=1.40 / pb_ratio=1.30 / aq=1:1.00
Язык : English
Default : Да
Forced : Нет
DURATION : 01:44:02.695000000
NUMBER_OF_FRAMES : 149675
NUMBER_OF_BYTES : 2675123638
_STATISTICS_WRITING_APP : mkvmerge v7.5.0 ('Glass Culture') 64bit built on Jan 4 2015 16:48:44
_STATISTICS_WRITING_DATE_UTC : 2015-02-05 19:42:14
_STATISTICS_TAGS : BPS DURATION NUMBER_OF_FRAMES NUMBER_OF_BYTES
Аудио #1
Идентификатор : 2
Формат : AC-3
Формат/Информация : Audio Coding 3
Профиль формата : Dolby Digital
Расширение режима : CM (complete main)
Параметр Endianness формата : Big
Идентификатор кодека : A_AC3
Продолжительность : 1 ч. 44 м.
Вид битрейта : Постоянный
Битрейт : 192 Кбит/сек
Каналы : 2 канала
Расположение каналов : Front: L R
Частота : 48,0 КГц
Битовая глубина : 16 бит
Метод сжатия : С потерями
Размер потока : 143 Мбайт (5%)
Заголовок : Mihalev
Язык : Russian
Default : Да
Forced : Нет
Аудио #2
Идентификатор : 3
Формат : AC-3
Формат/Информация : Audio Coding 3
Профиль формата : Dolby Digital
Расширение режима : CM (complete main)
Параметр Endianness формата : Big
Идентификатор кодека : A_AC3
Продолжительность : 1 ч. 44 м.
Вид битрейта : Постоянный
Битрейт : 192 Кбит/сек
Каналы : 2 канала
Расположение каналов : Front: L R
Частота : 48,0 КГц
Битовая глубина : 16 бит
Метод сжатия : С потерями
Размер потока : 143 Мбайт (5%)
Заголовок : Serbin
Язык : Russian
Default : Нет
Forced : Нет
Аудио #3
Идентификатор : 4
Формат : AC-3
Формат/Информация : Audio Coding 3
Профиль формата : Dolby Digital
Расширение режима : CM (complete main)
Параметр Endianness формата : Big
Идентификатор кодека : A_AC3
Продолжительность : 1 ч. 44 м.
Вид битрейта : Постоянный
Битрейт : 192 Кбит/сек
Каналы : 2 канала
Расположение каналов : Front: L R
Частота : 48,0 КГц
Битовая глубина : 16 бит
Метод сжатия : С потерями
Размер потока : 143 Мбайт (5%)
Заголовок : Zhivov
Язык : Russian
Default : Нет
Forced : Нет
Меню
00:00:00.000 : en:
00:11:58.634 : en:
00:24:50.405 : en:
00:40:36.183 : en:
00:49:45.899 : en:
01:05:33.929 : en:
01:18:39.339 : en:
01:31:29.484 : en:

log x.264

avs [info]: 1056x572p 1:1 @ 24000/1001 fps (cfr)
x264 [info]: using SAR=1/1
x264 [info]: using cpu capabilities: MMX2 SSE2Fast SSSE3 SSE4.2 AVX XOP FMA4 FMA3 LZCNT BMI1
x264 [info]: profile High, level 4.1
x264 [info]: frame I:916 Avg QP:18.76 size: 75016
x264 [info]: frame P:32393 Avg QP:19.96 size: 34030
x264 [info]: frame B:116366 Avg QP:21.72 size: 12925
x264 [info]: consecutive B-frames: 1.9% 2.9% 6.9% 16.8% 21.4% 43.5% 3.9% 1.0% 0.7% 0.3% 0.2% 0.2% 0.2% 0.0%
x264 [info]: mb I I16..4: 4.9% 80.9% 14.2%
x264 [info]: mb P I16..4: 0.5% 16.5% 1.6% P16..4: 31.2% 37.7% 11.1% 0.0% 0.0% skip: 1.3%
x264 [info]: mb B I16..4: 0.0% 1.6% 0.1% B16..8: 44.3% 22.5% 3.2% direct: 6.6% skip:21.8% L0:42.0% L1:46.5% BI:11.5%
x264 [info]: 8x8 transform intra:88.6% inter:59.8%
x264 [info]: coded y,uvDC,uvAC intra: 98.2% 77.5% 39.7% inter: 37.5% 21.7% 1.2%
x264 [info]: i16 v,h,dc,p: 33% 14% 6% 46%
x264 [info]: i8 v,h,dc,ddl,ddr,vr,hd,vl,hu: 8% 6% 8% 10% 15% 14% 13% 13% 13%
x264 [info]: i4 v,h,dc,ddl,ddr,vr,hd,vl,hu: 13% 7% 2% 9% 15% 16% 14% 13% 12%
x264 [info]: i8c dc,h,v,p: 34% 27% 21% 18%
x264 [info]: Weighted P-Frames: Y:21.2% UV:11.8%
x264 [info]: ref P L0: 42.9% 12.4% 17.7% 7.2% 6.0% 4.4% 4.0% 2.3% 2.3% 0.6% 0.1%
x264 [info]: ref B L0: 78.4% 9.4% 4.6% 2.6% 2.0% 1.7% 0.9% 0.4%
x264 [info]: ref B L1: 95.0% 5.0%
x264 [info]: kb/s:3428.16

Скриншоты

Яндекс.Метрика
Рейтинг@Mail.ru