Баунти / The Bounty (Роджер Доналдсон / Roger Donaldson) [1984 г., Боевик, драма, приключения, история, HDRip-AVC] AVO (Юрий Живов) + original (Eng)

 

Создавать темы 09-Фев-2015 08:58

Баунти / The Bounty
Год выпуска: 1984
Производство: Великобритания, США
Жанр: Боевик, драма, приключения, история
Продолжительность: 02:11:03
Перевод: Авторский (одноголосый, закадровый) Юрий Живов
Оригинальный аудиопоток: английский
Субтитры: отсутствуют
Режиссер: Роджер Доналдсон / Roger Donaldson
В ролях: Мэл Гибсон, Энтони Хопкинс, Лоуренс Оливье, Эдвард Фокс, Дэниэл Дэй-Льюис, Бернард Хилл, Филип Дэвис, Лиам Нисон, Ви Куки Каа, Филип Мартин Браун, Саймон Чэндлер, Малколм Террис
Описание: Бесконечно опасные плавания приводили отважных моряков к райским островам, и часто никакая кара не могла заставить опьяненных раем людей отправиться в обратный путь, навстречу новым ужасам.
Это случилось в 1789 году: фрегат «Баунти» возвращался с Таити с грузом хлебного дерева, когда ссора между капитаном и его лучшим другом расколола команду надвое. Вспыхнул мятеж…
, КиноПоиск
Качество видео: HDRip-AVC
Контейнер: MKV
Видео кодек: H.264
Аудио кодек: AC3
Видео: 1024x436, 23.976 fps, 2737 Kbps, 0.256 Bt/Px
Аудио : AC-3, 192 Kbps, 2 ch, 48.0 KHz Rus Живов
Аудио : AC-3, 192 Kbps, 2 ch, 48.0 KHz Eng Original

Доп. информация

Сделано из найденного в сети BDRip-1080P, русская дорога с DVD из коллекции.

Media Info

J:\BAUNTY.mkv
General
Unique ID : 231397662313559506503245630922395078404 (0xAE159195BD3CCCB5B685532B67F1CF04)
Complete name : J:\BAUNTY.mkv
Format : Matroska
Format version : Version 1
File size : 2.92 GiB
Duration : 2h 11mn
Overall bit rate : 3 185 Kbps
Encoded date : UTC 2015-02-05 20:35:34
Writing application : mkvmerge v2.5.3 ('Boogie') built on Mar 7 2009 15:00:41
Writing library : libebml v0.7.7 + libmatroska v0.8.1
Video #1
ID : 1
Format : AVC
Format/Info : Advanced Video Codec
Format profile : [email protected]
Format settings, CABAC : Yes
Format settings, ReFrames : 10 frames
Codec ID : V_MPEG4/ISO/AVC
Duration : 2h 11mn
Bit rate : 2 737 Kbps
Width : 1 024 pixels
Height : 436 pixels
Display aspect ratio : 2.35:1
Frame rate mode : Constant
Frame rate : 23.976 fps
Color space : YUV
Chroma subsampling : 4:2:0
Bit depth : 8 bits
Scan type : Progressive
Bits/(Pixel*Frame) : 0.256
Stream size : 2.51 GiB (86%)
Writing library : x264 core 130 r2273 b3065e6
Encoding settings : cabac=1 / ref=10 / deblock=1:-3:-3 / analyse=0x3:0x133 / me=umh / subme=11 / psy=1 / psy_rd=1.00:0.15 / mixed_ref=1 / me_range=24 / chroma_me=1 / trellis=2 / 8x8dct=1 / cqm=0 / deadzone=21,11 / fast_pskip=1 / chroma_qp_offset=-3 / threads=6 / lookahead_threads=1 / sliced_threads=0 / nr=0 / decimate=1 / interlaced=0 / bluray_compat=0 / constrained_intra=0 / bframes=7 / b_pyramid=2 / b_adapt=2 / b_bias=0 / direct=1 / weightb=1 / open_gop=0 / weightp=2 / keyint=250 / keyint_min=23 / scenecut=40 / intra_refresh=0 / rc=crf / mbtree=0 / crf=17.8 / qcomp=0.60 / qpmin=0 / qpmax=51 / qpstep=4 / ip_ratio=1.40 / pb_ratio=1.30 / aq=1:1.00
Language : English
Default : Yes
Forced : No
Audio #2
ID : 2
Format : AC-3
Format/Info : Audio Coding 3
Mode extension : CM (complete main)
Format settings, Endianness : Big
Codec ID : A_AC3
Duration : 2h 11mn
Bit rate mode : Constant
Bit rate : 192 Kbps
Channel(s) : 2 channels
Channel positions : Front: L R
Sampling rate : 48.0 KHz
Bit depth : 16 bits
Compression mode : Lossy
Stream size : 180 MiB (6%)
Title : AVO Живов
Language : Russian
Default : Yes
Forced : No
Audio #3
ID : 3
Format : AC-3
Format/Info : Audio Coding 3
Mode extension : CM (complete main)
Format settings, Endianness : Big
Codec ID : A_AC3
Duration : 2h 11mn
Bit rate mode : Constant
Bit rate : 192 Kbps
Channel(s) : 2 channels
Channel positions : Front: L R
Sampling rate : 48.0 KHz
Bit depth : 16 bits
Compression mode : Lossy
Stream size : 180 MiB (6%)
Language : English
Default : No
Forced : No

log x.264

x264 [info]: frame I:1413  Avg QP:17.89  size: 64818
x264 [info]: frame P:41411 Avg QP:19.37 size: 28628
x264 [info]: frame B:145706 Avg QP:21.12 size: 10138
x264 [info]: consecutive B-frames: 1.2% 1.3% 6.1% 39.9% 12.4% 34.1% 3.0% 1.9%
x264 [info]: mb I I16..4: 10.0% 65.5% 24.5%
x264 [info]: mb P I16..4: 1.3% 16.9% 3.4% P16..4: 24.5% 32.9% 15.0% 2.7% 0.2% skip: 2.9%
x264 [info]: mb B I16..4: 0.3% 2.4% 0.5% B16..8: 33.6% 26.5% 5.3% direct: 7.1% skip:24.3% L0:37.6% L1:43.7% BI:18.7%
x264 [info]: 8x8 transform intra:75.8% inter:53.7%
x264 [info]: coded y,uvDC,uvAC intra: 87.2% 86.1% 60.6% inter: 32.3% 27.4% 4.6%
x264 [info]: i16 v,h,dc,p: 60% 5% 13% 21%
x264 [info]: i8 v,h,dc,ddl,ddr,vr,hd,vl,hu: 11% 10% 9% 8% 12% 12% 12% 11% 14%
x264 [info]: i4 v,h,dc,ddl,ddr,vr,hd,vl,hu: 29% 9% 5% 6% 11% 11% 11% 8% 11%
x264 [info]: i8c dc,h,v,p: 41% 27% 17% 15%
x264 [info]: Weighted P-Frames: Y:11.5% UV:6.3%
x264 [info]: ref P L0: 43.0% 14.1% 18.6% 5.9% 5.4% 3.5% 3.5% 1.9% 2.0% 1.7% 0.3% 0.0%
x264 [info]: ref B L0: 82.3% 8.5% 3.3% 1.9% 1.3% 1.1% 0.9% 0.5% 0.3%
x264 [info]: ref B L1: 96.6% 3.4%
x264 [info]: kb/s:2802.11
x264 [total]: encoded 188530 frames, 7.14 fps, 2802.11 kb/s

Скриншоты

Яндекс.Метрика
Рейтинг@Mail.ru