Отряд «Америка»: Всемирная полиция / Team America: World Police (Трэй Паркер / Trey Parker) [2004 г., мультфильм, боевик, комедия, приключения, HDRip-AVC] MVO (Tycoon) + VO (Гоблин)

 

Создавать темы 09-Фев-2015 08:45

Отряд «Америка»: Всемирная полиция / Team America: World Police
Год выпуска: 2004
Производство: США, Германия
Жанр: мультфильм, боевик, комедия, приключения
Продолжительность: 01:37:42
Перевод: Профессиональный (многоголосый, закадровый) Tycoon (ненормативная лексика)
Перевод : Профессиональный (одноголосый, Гоблин)
Субтитры: отсутствуют
Режиссер: Трэй Паркер / Trey Parker
В ролях: Трэй Паркер, Мэтт Стоун, Кристен Миллер, Масаса Мойо, Даран Норрис, Фил Хендри, Морис ЛаМарш, Челси Маргерит, Джереми Шада
Описание: Команда «Америка»! Круче ребят отродясь не бывало! Команда «Америка» всегда готова прийти на помощь! Если где террористы замышляют чёрное дело — команда тут как тут! Эти бравые парни и девчонки наведут порядок во всём мире, даже если… их об этом никто не просит. Когда очередная угроза нависла над миром, команда «Америка» решается на самый отчаянный шаг: вербует бродвейского актёра Гэри Джонстона, чтобы тот под видом арабского террориста проник в логово врагов и разузнал место нахождения оружия массового поражения. И вроде бы миссия с блеском выполнена, но что такое? — на команду обозлился весь мир во главе с «Коалицией Американских Лицедеев», а земля снова под угрозой глобального теракта…
, КиноПоиск
Качество видео: HDRip-AVC
Контейнер: MKV
Видео кодек: H.264
Аудио кодек: AC3
Видео: 1052x440, 23.976 fps, 2920 Kbps, 0.263 Bt/Px
Аудио : AC-3, 448 Kbps, 6 ch, 48.0 KHz Rus Tycoon (ненормативная лексика)
Аудио : AC-3, 320 Kbps, 2 ch, 48.0 KHz Rus Гоблин

Доп. информация

Сделано из найденного в сети BDRip-1080P, русские дороги с DVD из коллекции.
ДЕТЯМ НЕ ДОСТИГШИМ 21 ГОДА, ПРОТИВОПОКАЗАНО!

Media Info

G:\загрузки\Team_America_-_World_Police_l_[Pirat.ca].torrent.mkv
General
Unique ID : 171562103885673651083026409692039630144 (0x8111A8C92A7DB33C9392DA0C07F24D40)
Complete name : G:\загрузки\Team_America_-_World_Police_l_[Pirat.ca].torrent.mkv
Format : Matroska
Format version : Version 1
File size : 2.57 GiB
Duration : 1h 37mn
Overall bit rate : 3 763 Kbps
Movie name : Team.America.World.Police.720p.HDTV.x264.AC3.5.1.Eng-SM
Encoded date : UTC 2015-02-06 08:12:36
Writing application : mkvmerge v2.5.3 ('Boogie') built on Mar 7 2009 15:00:41
Writing library : libebml v0.7.7 + libmatroska v0.8.1
Video #1
ID : 1
Format : AVC
Format/Info : Advanced Video Codec
Format profile : [email protected]
Format settings, CABAC : Yes
Format settings, ReFrames : 12 frames
Codec ID : V_MPEG4/ISO/AVC
Duration : 1h 37mn
Bit rate : 2 920 Kbps
Width : 1 052 pixels
Height : 440 pixels
Display aspect ratio : 2.40:1
Frame rate mode : Constant
Frame rate : 23.976 fps
Color space : YUV
Chroma subsampling : 4:2:0
Bit depth : 8 bits
Scan type : Progressive
Bits/(Pixel*Frame) : 0.263
Stream size : 1.99 GiB (78%)
Writing library : x264 core 130 r2273 b3065e6
Encoding settings : cabac=1 / ref=12 / deblock=1:-3:-3 / analyse=0x3:0x133 / me=umh / subme=11 / psy=1 / psy_rd=1.00:0.15 / mixed_ref=1 / me_range=24 / chroma_me=1 / trellis=2 / 8x8dct=1 / cqm=0 / deadzone=21,11 / fast_pskip=1 / chroma_qp_offset=-3 / threads=6 / lookahead_threads=1 / sliced_threads=0 / nr=0 / decimate=1 / interlaced=0 / bluray_compat=0 / constrained_intra=0 / bframes=8 / b_pyramid=2 / b_adapt=2 / b_bias=0 / direct=1 / weightb=1 / open_gop=0 / weightp=2 / keyint=250 / keyint_min=23 / scenecut=40 / intra_refresh=0 / rc=crf / mbtree=0 / crf=17.8 / qcomp=0.60 / qpmin=0 / qpmax=51 / qpstep=4 / ip_ratio=1.40 / pb_ratio=1.30 / aq=1:1.00
Language : English
Default : Yes
Forced : No
Audio #2
ID : 2
Format : AC-3
Format/Info : Audio Coding 3
Mode extension : CM (complete main)
Format settings, Endianness : Big
Codec ID : A_AC3
Duration : 1h 37mn
Bit rate mode : Constant
Bit rate : 448 Kbps
Channel(s) : 6 channels
Channel positions : Front: L C R, Side: L R, LFE
Sampling rate : 48.0 KHz
Bit depth : 16 bits
Compression mode : Lossy
Delay relative to video : 1s 0ms
Stream size : 313 MiB (12%)
Title : MVO Tycoon
Language : Russian
Default : Yes
Forced : No
Audio #3
ID : 3
Format : AC-3
Format/Info : Audio Coding 3
Mode extension : CM (complete main)
Format settings, Endianness : Big
Codec ID : A_AC3
Duration : 1h 37mn
Bit rate mode : Constant
Bit rate : 320 Kbps
Channel(s) : 2 channels
Channel positions : Front: L R
Sampling rate : 48.0 KHz
Bit depth : 16 bits
Compression mode : Lossy
Delay relative to video : 1s 0ms
Stream size : 224 MiB (9%)
Title : AVO Гоблин
Language : Russian
Default : No
Forced : No

Скриншоты

Яндекс.Метрика
Рейтинг@Mail.ru