Сыны свободы / Sons of Liberty / сезон 1 / Полный / серии 3 из 3 (Кари Скогланд / Kari Skogland) [2015г., драма, история, WEB-DLRip] МVO (AlexFilm) + Original (Eng)

 

Создавать темы 09-Фев-2015 08:32

Сыны свободы / Sons of Liberty- Русское название: Сыны свободы
Оригинальное название: Sons of Liberty
Страна: США
Год выпуска: 2015
Жанр: драма, история, ...-Релиз: Студия
Перевод: Профессиональный (многоголосый, закадровый)
Оригинальный аудиопоток: английский-Автор перевода: Константин Кривоногов
Озвучка: Татьяна Манетина, Михаил Суслов, Владимир Курдов, Сергей Пономарёв, Андрей Стакионис, Константин Погодаев
Монтаж и сведение звука: Сергей Мартынов
Постер: Андрей Шапал-Премьера (мир): 14 декабря 2014-Режиссер: Кари Скогланд / Kari Skogland, ...
В главных ролях: Бен Барнс, Мартон Чокаш, Райан Игголд, Майкл Рэймонд-Джеймс, Рейф Сполл, Генри Томас, Джейсон О’Мара, Дин Норрис, Эмили Беррингтон, Кевин Дж. Райан, Стив Гуттенберг, Шэйн Тейлор, ...-Описание фильма:
Мини-сериал "Сыны свободы" рассказывает о радикальной группе молодых людей - Сэме Адамсе, Джоне Адамсе, Поле Ревире, Джоне Хэнкоке и Джозефе Уоррене, который объединившись смогли изменить ход истории.
Назвав себя "Сынами свободы", они зажгли огонь революции, в результате которой Америка стала государством.
Хоть сейчас их имена стали легендами, они отнюдь не были патриотами в напудренных париках. Они принадлежали новому американскому поколению, пытающемуся найти своё предназначение в жизни.
Они искали равенства, но нашли нечто более ценное: независимость.-Сезон: 1
Серии: 3 из 3 серий
Продолжительность: ~ 01:23:00 мин серия-Качество видео: WEB-DLRip
Формат: AVI
Видеокодек: XviD
Аудиокодек: MP3
Видео: MPEG-4 Visual at 1401 Кбит/сек: 720 x 400 (1.800) at 23.976 fps, 0.20 bit/pixel
Аудио Rus: MPEG Audio at 128 Кбит/сек, 2 канала, 48,0 КГц |AlexFilm|
Аудио Eng: MPEG Audio at 128 Кбит/сек: 2 канала, 48,0 КГц |Original|
Cубтитры: отсутствуют
- -
  • Опасная игра (A Dangerous Game)
  • Восстание (The Uprising)
  • Независимость (Independence)
-

MediaInfo:

Общее
Полное имя : E:\_Сериалы\_Сериалы\Сыны свободы\Sons.of.Liberty.2015.WEB-DLRip.AlexFilm\Sons.of.Liberty.E01.A.Dangerous.Game.WEB-DLRip.Rus.Eng.AlexFilm.avi
Формат : AVI
Формат/Информация : Audio Video Interleave
Размер файла : 999 Мбайт
Продолжительность : 1 ч. 23 м.
Общий поток : 1671 Кбит/сек
Программа кодирования : VirtualDubMod 1.5.10.2 (build 2542/release)
Библиотека кодирования : VirtualDubMod build 2542/release
Видео
Идентификатор : 0
Формат : MPEG-4 Visual
Профиль формата : Advanced [email protected]
Параметр BVOP формата : 1
Параметр QPel формата : Нет
Параметр GMC формата : Без точки перехода
Параметр матрицы формата : Default (MPEG)
Идентификатор кодека : XVID
Идентификатор кодека/Подсказка : XviD
Продолжительность : 1 ч. 23 м.
Битрейт : 1401 Кбит/сек
Ширина : 720 пикселей
Высота : 400 пикселей
Соотношение сторон : 16:9
Частота кадров : 23,976 кадра/сек
Цветовое пространство : YUV
Субдискретизация насыщенности : 4:2:0
Битовая глубина : 8 бит
Тип развёртки : Прогрессивная
Метод сжатия : С потерями
Бит/(Пиксели*Кадры) : 0.203
Размер потока : 837 Мбайт (84%)
Библиотека кодирования : XviD 1.2.1 (UTC 2008-12-04)
Аудио #1
Идентификатор : 1
Формат : MPEG Audio
Версия формата : Version 1
Профиль формата : Layer 3
Режим : Joint stereo
Расширение режима : MS Stereo
Идентификатор кодека : 55
Идентификатор кодека/Подсказка : MP3
Продолжительность : 1 ч. 23 м.
Вид битрейта : Постоянный
Битрейт : 128 Кбит/сек
Каналы : 2 канала
Частота : 48,0 КГц
Метод сжатия : С потерями
Размер потока : 76,5 Мбайт (8%)
Выравнивание : Соединение по промежуткам
Продолжительность промежутка : 42 мс. (1,00 видеокадр)
Время предзагрузки промежутка : 504 мс.
Заголовок : Russian (AlexFilm)
Аудио #2
Идентификатор : 2
Формат : MPEG Audio
Версия формата : Version 1
Профиль формата : Layer 3
Режим : Joint stereo
Идентификатор кодека : 55
Идентификатор кодека/Подсказка : MP3
Продолжительность : 1 ч. 23 м.
Вид битрейта : Постоянный
Битрейт : 128 Кбит/сек
Каналы : 2 канала
Частота : 48,0 КГц
Метод сжатия : С потерями
Размер потока : 76,5 Мбайт (8%)
Выравнивание : Соединение по промежуткам
Продолжительность промежутка : 42 мс. (1,00 видеокадр)
Время предзагрузки промежутка : 504 мс.
Заголовок : English
-

Скриншот c названием фильма

-Скриншоты:
-

Еще

-

Как закачать отдельный файл

1. Открыть торрент
2. Снять галки с тех файлов торрента, которые мы не хотим закачивать. Оставляем только на нужных нам файлах (файле).
3. Нажать О.К.
В клиенте utorrent
Инструкция
1) Открыть торрент

2) Снять галки с тех файлов торрента, которые мы не хотим закачивать:
* либо вручную, снимая с каждого файла галку( скрин №1)
* либо, нажав кнопку "Снять метки (Select None)", сняв сразу со всех файлов(скрин №2)
№1

№2

Оставляем только на нужных нам файлах (файле).

3)Нажать О.К
-Добавлена третья, заключительная, серия первого сезона
Яндекс.Метрика
Рейтинг@Mail.ru