[ Сегодня на трекере фрилич! Идет свободное скачивание без начисления Download ]

Шальная карта / Wild Card (Саймон Уэст / Simon West) [2015 г., боевик, триллер, драма, криминал, WEB-DLRip, 720p] VO [М. Яроцкий] + Original (Eng) + Sub (Eng)

 

Создавать темы 09-Фев-2015 08:30

-Шальная карта / Wild Card--
Производство: США
Год выпуска: 2015 г.
Жанр: боевик, триллер, драма, криминал
Продолжительность: 01:32:19
Мировая премьера: 14 января 2015
Российская премьера: 26 февраля 2015, «West»
Перевод: Любительский (одноголосый, закадровый) [М. Яроцкий] (присутствует ненорматив)
Оригинальный аудиопоток: английский
Режиссер: Саймон Уэст / Simon West-В ролях:
Джейсон Стэйтем, Майкл Ангарано, Майло Вентимилья, Доминик Гарсиа-Лоридо, Энн Хеч, София Вергара, Макс Казелла, Джейсон Александр, Хоуп Дэвис, Стэнли Туччи-Описание:
Главный герой — бывший военный Ник Эскаланте — работает в Лас-Вегасе охранником, мечтает накопить денег и навсегда уехать в Венецию. Но Ник соглашается помочь проститутке Холли, подвергшейся насилию со стороны сына крупного гангстера, из-за чего отъезд в Венецию затягивается.
-
Качество видео: WEB-DLRip
Контейнер: MKV
Стандарт разрешения: 720p
Видео кодек: MPEG4 AVC
Аудио кодек: AC3
Видео: 1280 x 530; 3971 kbps; 23.976 fps
Аудио #1: 384 kbps; 6 ch; 48.0 kHz Rus
Аудио #2: 384 kbps; 6 ch; 48.0 kHz Eng
Cубтитры: английские

Media Info

General
Unique ID : 194167354607105131212800633291011624253 (0x921345B1EA6A29A2B9BBAE37A5C98D3D)
Complete name : D:\Torrents\Wild Card.2015.WEB-DL.720p.AVO.Kyberpunk.mkv
Format : Matroska
Format version : Version 4 / Version 2
File size : 3.12 GiB
Duration : 1h 32mn
Overall bit rate : 4 835 Kbps
Encoded date : UTC 2015-02-06 12:30:40
Writing application : mkvmerge v7.3.0 ('Nouages') 64bit built on Oct 22 2014 18:53:34
Writing library : libebml v1.3.0 + libmatroska v1.4.1
DURATION : 01:32:19.712000000
NUMBER_OF_FRAMES : 173116
NUMBER_OF_BYTES : 265906176
_STATISTICS_WRITING_APP : mkvmerge v7.3.0 ('Nouages') 64bit built on Oct 22 2014 18:53:34
_STATISTICS_WRITING_DATE_UTC : 2015-02-06 12:30:40
_STATISTICS_TAGS : BPS DURATION NUMBER_OF_FRAMES NUMBER_OF_BYTES
Video
ID : 1
Format : AVC
Format/Info : Advanced Video Codec
Format profile : [email protected]
Format settings, CABAC : No
Format settings, ReFrames : 2 frames
Codec ID : V_MPEG4/ISO/AVC
Duration : 1h 32mn
Bit rate : 3 971 Kbps
Width : 1 280 pixels
Height : 530 pixels
Display aspect ratio : 2.40:1
Frame rate mode : Constant
Frame rate : 23.976 fps
Color space : YUV
Chroma subsampling : 4:2:0
Bit depth : 8 bits
Scan type : Progressive
Bits/(Pixel*Frame) : 0.244
Stream size : 2.56 GiB (82%)
Language : English
Default : Yes
Forced : No
Color primaries : BT.709
Transfer characteristics : BT.709
Matrix coefficients : BT.709
Color range : Limited
Audio #1
ID : 2
Format : AC-3
Format/Info : Audio Coding 3
Mode extension : CM (complete main)
Format settings, Endianness : Big
Codec ID : A_AC3
Duration : 1h 32mn
Bit rate mode : Constant
Bit rate : 384 Kbps
Channel(s) : 6 channels
Channel positions : Front: L C R, Side: L R, LFE
Sampling rate : 48.0 KHz
Bit depth : 16 bits
Compression mode : Lossy
Stream size : 254 MiB (8%)
Title : М.Яроцкий
Language : Russian
Default : Yes
Forced : No
Audio #2
ID : 3
Format : AC-3
Format/Info : Audio Coding 3
Mode extension : CM (complete main)
Format settings, Endianness : Big
Codec ID : A_AC3
Duration : 1h 32mn
Bit rate mode : Constant
Bit rate : 384 Kbps
Channel(s) : 6 channels
Channel positions : Front: L C R, Side: L R, LFE
Sampling rate : 48.0 KHz
Bit depth : 16 bits
Compression mode : Lossy
Stream size : 254 MiB (8%)
Language : English
Default : No
Forced : No
Text
ID : 4
Format : UTF-8
Codec ID : S_TEXT/UTF8
Codec ID/Info : UTF-8 Plain Text
Language : English
Default : No
Forced : No
Menu
00:00:00.000 : en:Chapter 1
00:08:10.000 : en:Chapter 2
00:18:00.000 : en:Chapter 3
00:27:53.000 : en:Chapter 4
00:34:14.000 : en:Chapter 5
00:45:04.000 : en:Chapter 6
00:52:54.000 : en:Chapter 7
01:00:53.000 : en:Chapter 8
01:08:22.000 : en:Chapter 9
01:17:20.000 : en:Chapter 10
01:25:46.000 : en:Chapter 11
Яндекс.Метрика
Рейтинг@Mail.ru