[ Сегодня на трекере фрилич! Идет свободное скачивание без начисления Download ]

Это мой парк / The Park Is Mine (Стивен Хиллиард Штерн / Steven Hilliard Stern) [1985 г., Боевик, триллер, драма, WEB-DL, 1080p] AVO (Багичев, Володарский, Либергал) + Original (Eng)

 

Создавать темы 09-Фев-2015 08:21

Это мой парк / The Park Is Mine
Год выпуска: 1986
Производство: Канада
Жанр: Боевик, триллер, драма
Продолжительность: 01:41:33
Перевод: Авторский (одноголосый, закадровый) Алексей Багичев
Перевод: Авторский (одноголосый, закадровый) Леонид Володарский
Перевод: Любительский (одноголосый, закадровый) Григорий Либергал
Оригинальный аудиопоток: английский
Субтитры: отсутствуют
Режиссер: Стивен Хиллиард Штерн / Steven Hilliard Stern
В ролях: Томми Ли Джонс, Хелен Шэйвер, Яфет Котто, Лоуренс Дэйн, Питер Дворски, Эрик Петерсон
Описание: Вьетнамский ветеран кончает жизнь самоубийством, спрыгнув с крыши городской больницы. В оставленном письме он сообщает своему другу Митчу о плане захвата центрального парка перед днем ветеранов. Также он оставляет ему карту, на которой отмечены оружие и боеприпасы, разбросанные по всему парку. Митч решает воплотить неоконченный план умершего друга в жизнь…
, КиноПоиск
Качество видео: WEB-DL
Контейнер: MKV
Стандарт разрешения: 1080p
Видео кодек: H.264
Аудио кодек: AC3
Видео: 1920x1080, 23.976 fps, 5059 Kbps, 0.102 bt/px
Аудио : AC-3, 192 Kbps, 2 ch, 48.0 KHz Rus Багичев
Аудио : AC-3, 192 Kbps, 2 ch, 48.0 KHz Rus Володарский
Аудио : AC-3, 192 Kbps, 2 ch, 48.0 KHz Rus Либергал
Аудио : AC-3, 192 Kbps, 2 ch, 48.0 KHz Eng Original

Доп. информация

WEB-DL найден в сети, дороги из запасов

Media Info

G:\загрузки\The_Park_Is_Mine_[Pirat.ca].torrent.mkv
General
Unique ID : 233372049393053732492559558729455287898 (0xAF91D26233259DE9BE62DB6226D6BE5A)
Complete name : G:\загрузки\The_Park_Is_Mine_[Pirat.ca].torrent.mkv
Format : Matroska
Format version : Version 1
File size : 4.22 GiB
Duration : 1h 41mn
Overall bit rate : 5 945 Kbps
Encoded date : UTC 2015-02-06 17:15:22
Writing application : mkvmerge v2.5.3 ('Boogie') built on Mar 7 2009 15:00:41
Writing library : libebml v0.7.7 + libmatroska v0.8.1
Video #1
ID : 1
Format : AVC
Format/Info : Advanced Video Codec
Format profile : [email protected]
Format settings, CABAC : Yes
Format settings, ReFrames : 4 frames
Codec ID : V_MPEG4/ISO/AVC
Duration : 1h 41mn
Bit rate : 5 059 Kbps
Width : 1 920 pixels
Height : 1 080 pixels
Display aspect ratio : 16:9
Frame rate mode : Constant
Frame rate : 23.976 fps
Color space : YUV
Chroma subsampling : 4:2:0
Bit depth : 8 bits
Scan type : Progressive
Bits/(Pixel*Frame) : 0.102
Stream size : 3.59 GiB (85%)
Language : English
Default : Yes
Forced : No
Color primaries : BT.709
Transfer characteristics : BT.709
Matrix coefficients : BT.709
Audio #2
ID : 2
Format : AC-3
Format/Info : Audio Coding 3
Mode extension : CM (complete main)
Format settings, Endianness : Big
Codec ID : A_AC3
Duration : 1h 41mn
Bit rate mode : Constant
Bit rate : 192 Kbps
Channel(s) : 2 channels
Channel positions : Front: L R
Sampling rate : 48.0 KHz
Bit depth : 16 bits
Compression mode : Lossy
Stream size : 139 MiB (3%)
Title : AVO Багичев
Language : Russian
Default : Yes
Forced : No
Audio #3
ID : 3
Format : AC-3
Format/Info : Audio Coding 3
Mode extension : CM (complete main)
Format settings, Endianness : Big
Codec ID : A_AC3
Duration : 1h 41mn
Bit rate mode : Constant
Bit rate : 192 Kbps
Channel(s) : 2 channels
Channel positions : Front: L R
Sampling rate : 48.0 KHz
Bit depth : 16 bits
Compression mode : Lossy
Stream size : 139 MiB (3%)
Title : AVO Володарский
Language : Russian
Default : No
Forced : No
Audio #4
ID : 4
Format : AC-3
Format/Info : Audio Coding 3
Mode extension : CM (complete main)
Format settings, Endianness : Big
Codec ID : A_AC3
Duration : 1h 41mn
Bit rate mode : Constant
Bit rate : 192 Kbps
Channel(s) : 2 channels
Channel positions : Front: L R
Sampling rate : 48.0 KHz
Bit depth : 16 bits
Compression mode : Lossy
Stream size : 139 MiB (3%)
Title : AVO Либергал
Language : Russian
Default : No
Forced : No
Audio #5
ID : 5
Format : AC-3
Format/Info : Audio Coding 3
Mode extension : CM (complete main)
Format settings, Endianness : Big
Codec ID : A_AC3
Duration : 1h 41mn
Bit rate mode : Constant
Bit rate : 192 Kbps
Channel(s) : 2 channels
Channel positions : Front: L R
Sampling rate : 48.0 KHz
Bit depth : 16 bits
Compression mode : Lossy
Stream size : 139 MiB (3%)
Language : English
Default : No
Forced : No

Скриншоты

Яндекс.Метрика
Рейтинг@Mail.ru