Власть в ночном городе / Power / Сезон: 1 / Полный / Серии: 8 из 8 (Джон Дэвид Коулз / John David Coles, ...) [2014 г., драма, WEB-DLRip] MVO (Amedia) + Original (Eng) + Sub (Rus, Eng)

 

Создавать темы 09-Фев-2015 08:05

- Власть в ночном городе / Power-- Производство: США, CBS Television Studios
Жанр: драма
Год выпуска: 2014 г.-Премьера (мир): 7 июня 2014
Премьера (РФ): 8 июня 2014-Озвучка: Студия
Перевод: Многоголосый закадровый, профессиональный
Оригинальный аудиопоток: английский-Режиссер: Джон Дэвид Коулз / John David Coles, Энтони Хемингуэй / Anthony Hemingway, Джордж Тиллман мл. / George Tillman Jr., ...-В ролях: Адам Хасс, Лесли Лопез, Винисиус Мачадо, Люси Уолтерс, Луис Рамос, Кэтрин Нардуччи, Шэйн Джонсон, Доминик Колон, Омари Хардвик, ...-Описание:
Заработав немало денег на нелегальной торговле наркотиками, хозяин ночного клуба планирует легализировать свой капитал. Он хочет занять достойное место в высших слоях нью-йоркской элиты, куда закрыт доступ всякого рода драгдилерам. Безусловно, деньги и власть в ночном городе неразделимые понятия, но нужна ещё определенная респектабельность и репутация, позволяющие вполне официально управлять городом и влиять на ход событий.-Сезон: 1
Серии: 8 из 8 серий
Продолжительность: ~ 00:57:00 мин серия-Качество видео: WEB-DLRip
Контейнер: AVI
Видео кодек: XviD
Аудио кодек: MP3
Видео: MPEG-4 Visual at 1300 Кбит/сек: 720 x 400 (1.800) at 23.976 fps: 0.19 Бит/Пиксели
Аудио Rus: MPEG Audio at 128 Кбит/сек: 2 канала, 48,0 КГц |Amedia|
Аудио Eng: MPEG Audio at 128 Кбит/сек: 2 канала, 48,0 КГц |Original|
Cубтитры: русские, английские
Формат субтитров: softsub (SRT)
- -

Список серий:

  • Не совсем... (Not Exactly...)
  • Кем Бы Он Ни Был (Whoever He Is)
  • Это Реально (This Is Real)
  • Кто Ты? (Who Are You?)
  • Я Должен Идти (I Gotta Go)
  • Кто Вы? (Who You With?)
  • Лояльность (Loyalty)
  • Хорошо продуманный план (Best Laid Plans)
-

Media Info

Общее
Полное имя : E:\_Сериалы\Power.(S01)\Power.S01E01.XviD.Amedia.[qqss44].avi
Формат : AVI
Формат/Информация : Audio Video Interleave
Размер файла : 650 Мбайт
Продолжительность : 57 м.
Общий поток : 1570 Кбит/сек
Программа кодирования : VirtualDubMod 1.5.10.3 | www.virtualdub-fr.org || (build 2550/release)
Библиотека кодирования : VirtualDubMod build 2550/release
Видео
Идентификатор : 0
Формат : MPEG-4 Visual
Профиль формата : Advanced [email protected]
Параметр BVOP формата : 2
Параметр QPel формата : Нет
Параметр GMC формата : Без точки перехода
Параметр матрицы формата : Default (H.263)
Идентификатор кодека : XVID
Идентификатор кодека/Подсказка : XviD
Продолжительность : 57 м.
Битрейт : 1300 Кбит/сек
Ширина : 720 пикселей
Высота : 400 пикселей
Соотношение сторон : 16:9
Частота кадров : 23,976 кадра/сек
Цветовое пространство : YUV
Субдискретизация насыщенности : 4:2:0
Битовая глубина : 8 бит
Тип развёртки : Прогрессивная
Метод сжатия : С потерями
Бит/(Пиксели*Кадры) : 0.188
Размер потока : 538 Мбайт (83%)
Библиотека кодирования : XviD 73
Аудио #1
Идентификатор : 1
Формат : MPEG Audio
Версия формата : Version 1
Профиль формата : Layer 3
Идентификатор кодека : 55
Идентификатор кодека/Подсказка : MP3
Продолжительность : 57 м.
Вид битрейта : Постоянный
Битрейт : 128 Кбит/сек
Каналы : 2 канала
Частота : 48,0 КГц
Метод сжатия : С потерями
Размер потока : 53,0 Мбайт (8%)
Выравнивание : Соединение по промежуткам
Продолжительность промежутка : 42 мс. (1,00 видеокадр)
Время предзагрузки промежутка : 504 мс.
Библиотека кодирования : LAME3.99r
Настройки программы : -m s -V 4 -q 2 -lowpass 17 -b 128
Аудио #2
Идентификатор : 2
Формат : MPEG Audio
Версия формата : Version 1
Профиль формата : Layer 3
Идентификатор кодека : 55
Идентификатор кодека/Подсказка : MP3
Продолжительность : 57 м.
Вид битрейта : Постоянный
Битрейт : 128 Кбит/сек
Каналы : 2 канала
Частота : 48,0 КГц
Метод сжатия : С потерями
Размер потока : 53,0 Мбайт (8%)
Выравнивание : Соединение по промежуткам
Продолжительность промежутка : 42 мс. (1,00 видеокадр)
Время предзагрузки промежутка : 504 мс.
Библиотека кодирования : LAME3.99r
Настройки программы : -m s -V 4 -q 2 -lowpass 17 -b 128
-

Скриншот c названием фильма

-Скриншоты:
-

Еще

-Добавлена восьмая, заключительная, серия первого сезона
Раздача перезалита в качестве WEB-DLRip
Яндекс.Метрика
Рейтинг@Mail.ru