[ Сегодня на трекере фрилич! Идет свободное скачивание без начисления Download ]

Час пик 3 / Rush Hour 3 (Бретт Ратнер / Brett Ratner) [2007 г., боевик, комедия, BDRip-AVC] AVO (Гаврилов, Королёв) + Dub

 

Создавать темы 09-Фев-2015 07:38

Час пик 3 / Rush Hour 3
Год выпуска: 2007
Производство: США, Германия
Жанр: боевик, комедия
Продолжительность: 01:30:47
Перевод: Авторский (одноголосый, закадровый) Гаврилов, Королёв
Перевод 2: Профессиональный (полное дублирование)
Режиссер: Бретт Ратнер / Brett Ratner
В ролях: Крис Такер, Джеки Чан, Макс фон Сюдов, Хироюки Санада, Айван Аттал, Йоуки Кудо, Ноеми Ленуар, Жинчу Чжан, Тзи Ма, Дэна Айви, Анри О, Миа Тайлер, Майкл Коу, Дэвид Найвен мл.
Описание: Лос-анджелесского полицейского Джеймса Картера, допустившего грубую ошибку при аресте подозреваемого, переводят на гораздо менее престижную должность в дорожной полиции. Тем временем гонконгский полицейский инспектор Ли получает спецзадание: он должен охранять китайского посла Хана, который направляется в Лос-Анджелес, чтобы произнести там речь на саммите Всемирного уголовного суда.
Хан намеревается разоблачить интриги китайской Триады — самого опасного криминального синдиката в мире — и вывести на чистую воду преступных боссов. Представители Триады, разумеется, не дремлют. Они отправляют в Лос-Анджелес наемного убийцу, которому удается ранить посла в тот самый момент, когда он начинает произносить свою разоблачительную речь. Ли бросается вдогонку за преступником. Тем временем Картер, услышав по полицейскому радио сообщение о покушении на посла, мчится на место преступления… и, естественно, только путается под ногами у Ли.

Сэмпл ,
Качество видео: BDRip-AVC
Контейнер: MKV
Видео кодек: H.264
Аудио кодек: AC3
Видео: 3 277 Kbps, 1128*470 pixels, 2.40:1, 23.976 fps
Аудио : AC3, 384 Kbps, 6 channels, 48.0 KHz, 16 bits - Гаврилов
Аудио #2: AC3, 384 Kbps, 6 channels, 48.0 KHz, 16 bits - Королёв
Аудио #3: AC3, 384 Kbps, 6 channels, 48.0 KHz, 16 bits - DUB

Media Info

I:\PIRAT.CA\РАЗДАЧИ\ЧАС ПИК-3.BDRip-AVC.2007.mkv
General
Unique ID : 231102623762383520187818758702937626906 (0xADDCBF0FAEAC4A1B9A0357277767591A)
Complete name : I:\PIRAT.CA\РАЗДАЧИ\ЧАС ПИК-3.BDRip-AVC.2007.mkv
Format : Matroska
Format version : Version 4 / Version 2
File size : 2.81 GiB
Duration : 1h 30mn
Overall bit rate : 4 429 Kbps
Encoded date : UTC 2015-02-07 10:00:24
Writing application : mkvmerge v6.1.0 ('Old Devil') built on Mar 4 2013 09:10:42
Writing library : libebml v1.3.0 + libmatroska v1.4.0
Video #1
ID : 1
Format : AVC
Format/Info : Advanced Video Codec
Format profile : [email protected]
Format settings, CABAC : Yes
Format settings, ReFrames : 15 frames
Codec ID : V_MPEG4/ISO/AVC
Duration : 1h 30mn
Bit rate : 3 277 Kbps
Width : 1 128 pixels
Height : 470 pixels
Display aspect ratio : 2.40:1
Frame rate : 23.976 fps
Color space : YUV
Chroma subsampling : 4:2:0
Bit depth : 8 bits
Scan type : Progressive
Bits/(Pixel*Frame) : 0.258
Stream size : 2.02 GiB (72%)
Writing library : x264 core 130 r2273 b3065e6
Encoding settings : cabac=1 / ref=15 / deblock=1:-1:-1 / analyse=0x3:0x133 / me=umh / subme=10 / psy=1 / psy_rd=1.00:0.15 / mixed_ref=1 / me_range=32 / chroma_me=1 / trellis=2 / 8x8dct=1 / cqm=0 / deadzone=21,11 / fast_pskip=0 / chroma_qp_offset=-3 / threads=12 / lookahead_threads=2 / sliced_threads=0 / nr=0 / decimate=0 / interlaced=0 / bluray_compat=0 / constrained_intra=0 / bframes=8 / b_pyramid=2 / b_adapt=2 / b_bias=0 / direct=3 / weightb=1 / open_gop=0 / weightp=2 / keyint=250 / keyint_min=23 / scenecut=40 / intra_refresh=0 / rc=2pass / mbtree=0 / bitrate=3277 / ratetol=1.0 / qcomp=0.60 / qpmin=0 / qpmax=69 / qpstep=4 / cplxblur=20.0 / qblur=0.5 / ip_ratio=1.40 / pb_ratio=1.30 / aq=1:1.00
Audio #2
ID : 2
Format : AC-3
Format/Info : Audio Coding 3
Mode extension : CM (complete main)
Codec ID : A_AC3
Duration : 1h 30mn
Bit rate mode : Constant
Bit rate : 384 Kbps
Channel(s) : 6 channels
Channel positions : Front: L C R, Side: L R, LFE
Sampling rate : 48.0 KHz
Bit depth : 16 bits
Compression mode : Lossy
Stream size : 249 MiB (9%)
Title : ГАВРИЛОВ
Language : Russian
Audio #3
ID : 3
Format : AC-3
Format/Info : Audio Coding 3
Mode extension : CM (complete main)
Codec ID : A_AC3
Duration : 1h 30mn
Bit rate mode : Constant
Bit rate : 384 Kbps
Channel(s) : 6 channels
Channel positions : Front: L C R, Side: L R, LFE
Sampling rate : 48.0 KHz
Bit depth : 16 bits
Compression mode : Lossy
Stream size : 249 MiB (9%)
Title : КОРОЛЁВ
Language : Russian
Audio #4
ID : 4
Format : AC-3
Format/Info : Audio Coding 3
Mode extension : CM (complete main)
Codec ID : A_AC3
Duration : 1h 30mn
Bit rate mode : Constant
Bit rate : 384 Kbps
Channel(s) : 6 channels
Channel positions : Front: L C R, Side: L R, LFE
Sampling rate : 48.0 KHz
Bit depth : 16 bits
Compression mode : Lossy
Stream size : 249 MiB (9%)
Title : DUB
Language : Russian

log x.264

x264 [info]: frame I:1360  Avg QP:16.51  size: 85882
x264 [info]: frame P:34776 Avg QP:19.16 size: 30139
x264 [info]: frame B:94473 Avg QP:21.09 size: 11270
x264 [info]: consecutive B-frames: 4.5% 8.6% 10.2% 28.3% 14.1% 30.5% 2.1% 1.3% 0.4%
x264 [info]: mb I I16..4: 16.4% 60.1% 23.5%
x264 [info]: mb P I16..4: 1.9% 16.0% 2.4% P16..4: 35.1% 20.5% 13.2% 0.6% 0.2% skip:10.1%
x264 [info]: mb B I16..4: 0.1% 1.7% 0.3% B16..8: 38.5% 13.0% 3.8% direct: 7.2% skip:35.4% L0:42.4% L1:43.9% BI:13.7%
x264 [info]: 8x8 transform intra:76.7% inter:59.7%
x264 [info]: direct mvs spatial:97.6% temporal:2.4%
x264 [info]: coded y,uvDC,uvAC intra: 88.0% 88.8% 75.8% inter: 31.2% 29.6% 16.9%
x264 [info]: i16 v,h,dc,p: 48% 11% 14% 27%
x264 [info]: i8 v,h,dc,ddl,ddr,vr,hd,vl,hu: 15% 11% 9% 8% 12% 12% 12% 10% 12%
x264 [info]: i4 v,h,dc,ddl,ddr,vr,hd,vl,hu: 17% 11% 4% 8% 13% 13% 13% 10% 12%
x264 [info]: i8c dc,h,v,p: 46% 20% 18% 16%
x264 [info]: Weighted P-Frames: Y:8.9% UV:5.1%
x264 [info]: ref P L0: 46.6% 11.7% 16.9% 5.8% 4.8% 3.2% 2.9% 1.5% 1.4% 1.1% 1.0% 0.8% 0.8% 0.6% 0.7% 0.1%
x264 [info]: ref B L0: 75.8% 10.2% 4.3% 2.4% 1.7% 1.6% 1.2% 0.7% 0.5% 0.5% 0.4% 0.3% 0.2% 0.1%
x264 [info]: ref B L1: 94.3% 5.7%
x264 [info]: kb/s:3274.35

Скриншоты

Яндекс.Метрика
Рейтинг@Mail.ru