Воспоминание (Владимир Савельев) [1986 г., документальный, VHSRip]

 

Создавать темы 09-Фев-2015 07:31

-Воспоминание-- Производство: СССР, Киностудия им. А. Довженко
Режиссер: Владимир Савельев
Жанр: документальный
Год выпуска: 1986 г.
Продолжительность: 01:05:57
В ролях: Владимир Высоцкий, Елена Камбурова-Описание: Этот фильм – дань памяти В.Высоцкому. В нем принимает участие Елена Камбурова, звучат песни поэта, присутствует хроника, видеоматериалы, выступления певца, встречи с журналистами.-Качество видео: VHSRip
Контейнер: AVI
Видео кодек: XviD
Аудио кодек: MP3
Видео: 656x 524; 1004 kbps; 25 fps; 0.117 bit/pixel
Аудио: 256 kbps; 2 ch; 48 kHz
Cубтитры: отсутствуют

Media Info

General
Complete name : D:\Torrent\Vospominanie_[Pirat.ca].torrent.avi
Format : AVI
Format/Info : Audio Video Interleave
File size : 599 MiB
Duration : 1h 5mn
Overall bit rate : 1 270 Kbps
Writing library : VirtualDub build 35390/release
Video
ID : 0
Format : MPEG-4 Visual
Format profile : Advanced [email protected]
Format settings, BVOP : 2
Format settings, QPel : No
Format settings, GMC : No warppoints
Format settings, Matrix : Default (H.263)
Muxing mode : Packed bitstream
Codec ID : XVID
Codec ID/Hint : XviD
Duration : 1h 5mn
Bit rate : 1 004 Kbps
Width : 656 pixels
Height : 524 pixels
Display aspect ratio : 5:4
Frame rate : 25.000 fps
Color space : YUV
Chroma subsampling : 4:2:0
Bit depth : 8 bits
Scan type : Progressive
Compression mode : Lossy
Bits/(Pixel*Frame) : 0.117
Stream size : 474 MiB (79%)
Writing library : XviD 73
Audio
ID : 1
Format : MPEG Audio
Format version : Version 1
Format profile : Layer 3
Mode : Joint stereo
Mode extension : MS Stereo
Codec ID : 55
Codec ID/Hint : MP3
Duration : 1h 5mn
Bit rate mode : Constant
Bit rate : 256 Kbps
Channel(s) : 2 channels
Sampling rate : 48.0 KHz
Compression mode : Lossy
Stream size : 121 MiB (20%)
Alignment : Split accross interleaves
Interleave, duration : 40 ms (1.00 video frame)
Interleave, preload duratio : 500 ms
Writing library : LAME3.96

Скриншоты

Раздача

Раздача с 14.00 до 2.30 (время московское)
Яндекс.Метрика
Рейтинг@Mail.ru