Вселенная Стивена Хокинга / The Theory of Everything (Джеймс Марш / James Marsh) [2014 г., драма, мелодрама, биография, HDRip] VO (Doctor Joker)

 

Создавать темы 09-Фев-2015 07:30

-Вселенная Стивена Хокинга / The Theory of Everything- Производство: Великобритания
Год выпуска: 2014 г.
Жанр: драма, мелодрама, биография
Продолжительность: 02:35:01
Мировая премьера: 7 сентября 2014
Российская премьера: 26 февраля 2015, «UPI»
Перевод: Любительский (одноголосый, закадровый) [Алексей Матвеев ака Doctor Joker]-Режиссер: Джеймс Марш / James Marsh
В ролях: Эдди Редмэйн, Фелисити Джонс, Чарли Кокс, Эмили Уотсон, Том Прайор, Софи Перри, Finlay Wright-Stephens, Гарри Ллойд, Элис Орр-Юинг, Дэвид Тьюлис-Описание: История отношений между известным физиком Стивеном Хокингом и его женой.- -Качество видео: HDRip
Контейнер: AVI
Видео кодек: XviD
Аудио кодек: AC3
Видео: 720x304 (2.37:1), 23.976 fps, XviD build 50 ~1990 kbps avg, 0.38 bit/pixel
Аудио: 48 kHz, AC3 Dolby Digital, 3/2 (L,C,R,l,r) + LFE ch, ~384 kbps
Cубтитры: отсутствуют

Media Info

General
Complete name : D:\Vselenna1a.St1vena.Hok1nga.2014.A.HDRip.2100MB..avi
Format : AVI
Format/Info : Audio Video Interleave
Format profile : OpenDML
File size : 2.05 GiB
Duration : 2h 3mn
Overall bit rate : 2 381 Kbps
Writing application : VirtualDubMod 1.5.10.2 (build 2540/release)
Writing library : VirtualDubMod build 2540/release
Video
ID : 0
Format : MPEG-4 Visual
Format profile : Advanced [email protected]
Format settings, BVOP : 2
Format settings, QPel : No
Format settings, GMC : No warppoints
Format settings, Matrix : Default (MPEG)
Codec ID : XVID
Codec ID/Hint : XviD
Duration : 2h 3mn
Bit rate : 1 985 Kbps
Width : 720 pixels
Height : 304 pixels
Display aspect ratio : 2.35:1
Frame rate : 23.976 fps
Color space : YUV
Chroma subsampling : 4:2:0
Bit depth : 8 bits
Scan type : Progressive
Compression mode : Lossy
Bits/(Pixel*Frame) : 0.378
Stream size : 1.71 GiB (83%)
Writing library : XviD 1.2.1 (UTC 2008-12-04)
Audio
ID : 1
Format : AC-3
Format/Info : Audio Coding 3
Mode extension : CM (complete main)
Format settings, Endianness : Big
Codec ID : 2000
Duration : 2h 3mn
Bit rate mode : Constant
Bit rate : 384 Kbps
Channel(s) : 6 channels
Channel positions : Front: L C R, Side: L R, LFE
Sampling rate : 48.0 KHz
Bit depth : 16 bits
Compression mode : Lossy
Stream size : 339 MiB (16%)
Alignment : Split accross interleaves
Interleave, duration : 42 ms (1.00 video frame)
Interleave, preload duratio : 500 ms

Скриншоты

Яндекс.Метрика
Рейтинг@Mail.ru