Мальчишник по-ирландски / The Stag (Джон Батлер / John Butler) [2013 г., комедия, HDRip] MVO (Лицензия)

 

Создавать темы 09-Фев-2015 07:29

-Мальчишник по-ирландски / The Stag- Производство: Ирландия
Год выпуска: 2013 г.
Жанр: комедия
Продолжительность: 01:34:16
Мировая премьера: 10 сентября 2013
Перевод: Профессиональный (многоголосый, закадровый) [Лицензия]-Режиссер: Джон Батлер / John Butler
В ролях: Эндрю Скотт, Хью О'Конор, Питер МакДональд, Брайан Глисон, Майкл Легге, Эндрю Беннетт, Эми Хуберман, Марселла Планкетт, Джастин Митчелл, Эми Де Врун-Описание: Как организовать крутой и запоминающийся мальчишник? Есть масса способов: например, проиграть состояние в Вегасе или напиться до беспамятства в Бангкоке. А можно последовать традициям настоящих ирландских мужчин — и двинуть в лес. Здесь, вдали от цивилизации и экстренных служб, вас ничто не остановит. И живые позавидуют мертвым.- -Качество видео: HDRip
Контейнер: AVI
Видео кодек: XviD
Аудио кодек: AC3
Видео: 720x384 (1.88:1), 23.976 fps, XviD build 50 ~1618 kbps avg, 0.24 bit/pixel
Аудио: 48 kHz, AC3 Dolby Digital, 3/2 (L,C,R,l,r) + LFE ch, ~448 kbps
Cубтитры: отсутствуют

Media Info

General
Complete name : D:\Malch1shnik.2013.P.HDRip.1400MB.avi
Format : AVI
Format/Info : Audio Video Interleave
File size : 1.37 GiB
Duration : 1h 34mn
Overall bit rate : 2 074 Kbps
Writing application : VirtualDubMod 1.5.10.2 (build 2540/release)
Writing library : VirtualDubMod build 2540/release
Video
ID : 0
Format : MPEG-4 Visual
Format profile : Advanced [email protected]
Format settings, BVOP : 2
Format settings, QPel : No
Format settings, GMC : No warppoints
Format settings, Matrix : Default (MPEG)
Codec ID : XVID
Codec ID/Hint : XviD
Duration : 1h 34mn
Bit rate : 1 619 Kbps
Width : 720 pixels
Height : 384 pixels
Display aspect ratio : 1.85:1
Frame rate : 23.976 fps
Color space : YUV
Chroma subsampling : 4:2:0
Bit depth : 8 bits
Scan type : Progressive
Compression mode : Lossy
Bits/(Pixel*Frame) : 0.244
Stream size : 1.07 GiB (78%)
Writing library : XviD 1.2.1 (UTC 2008-12-04)
Audio
ID : 1
Format : AC-3
Format/Info : Audio Coding 3
Mode extension : CM (complete main)
Format settings, Endianness : Big
Codec ID : 2000
Duration : 1h 33mn
Bit rate mode : Constant
Bit rate : 448 Kbps
Channel(s) : 6 channels
Channel positions : Front: L C R, Side: L R, LFE
Sampling rate : 48.0 KHz
Bit depth : 16 bits
Compression mode : Lossy
Stream size : 301 MiB (22%)
Alignment : Split accross interleaves
Interleave, duration : 42 ms (1.00 video frame)
Interleave, preload duratio : 500 ms

Скриншоты

Яндекс.Метрика
Рейтинг@Mail.ru